Торрент файл
скачать торрент магнет ссылка Добавлен: 10 сен 2013, 15:45
Размер: 2.21 ГБ
Сидеров: 0
Личеров: 3
Статус: (PriZraK)
Автор

СообщениеДобавлено: 10 сен 2013, 15:45 

Не в сети
Зам. Админа
Аватара пользователя
Дата регистрации:
02 дек 2010, 12:39
Спасибо: 12623 / 214
Сообщения: 28012
Год выхода: 2013
Жанр: драма, мелодрама
Режиссер: Джей Джей Абрамс
В ролях: Леонардо ДиКаприо, Тоби Магуайр, Кэри Маллиган, Джоэл Эдгертон, Айла Фишер, Лиза Адам, Фрэнк Элдридж, Амитабх Баччан, Стив Бисли, Ричард Картер

О фильме: Весной 1922 года, в эпоху разлагающейся морали, блистательного джаза и «королей контрабандного алкоголя», Ник Каррауэй приезжает из Среднего Запада в Нью-Йорк. Преследуя собственную американскую мечту, он селится по соседству с таинственным, известным своими вечеринками миллионером Джеем Гэтсби, а на противоположном берегу бухты проживают его кузина Дэйзи и её муж, повеса и аристократ, Том Бьюкенен. Так Ник оказывается вовлечённым в захватывающий мир богатых — их иллюзий, любви и обманов. Он становится свидетелем происходящего в этом мире и пишет историю невозможной любви, вечных мечтаний и человеческой трагедии, которые являются отражением современных времен и нравов.

Выпущено: Австралия, США
Продолжительность: 02:09:55
Озвучивание: Дублированное

Формат: AVC
Качество: HDRip
Видео: MPEG4 Video (H264) 960x400 23.976fps
Аудио: Dolby AC3 48000Hz 6ch 448kbps
Субтитры: UTF-8 [Russian, Forced]
General
Unique ID : 210860219048827982836204408151067942594 (0x9EA23374622320197811530358E95EC2)
Complete name : D:Фильмы !Великий Гэтсби.mkv
Format : Matroska
Format version : Version 2
File size : 2.21 GiB
Duration : 2h 22mn
Overall bit rate : 2 228 Kbps
Movie name : BLUEBIRD
Writing application : XviD4PSP 6.0 / 53.6.0
Writing library : XviD4PSP 6.0 / 53.6.0

Video
ID : 1
Format : AVC
Format/Info : Advanced Video Codec
Format profile : High@L4.1
Format settings, CABAC : Yes
Format settings, ReFrames : 3 frames
Codec ID : V_MPEG4/ISO/AVC
Duration : 2h 22mn
Bit rate : 1 736 Kbps
Nominal bit rate : 1 855 Kbps
Width : 960 pixels
Height : 400 pixels
Display aspect ratio : 2.40:1
Frame rate mode : Constant
Frame rate : 23.976 fps
Color space : YUV
Chroma subsampling : 4:2:0
Bit depth : 8 bits
Scan type : Progressive
Bits/(Pixel*Frame) : 0.189
Stream size : 1.72 GiB (78%)
Writing library : x264 core 116 r2019M 9cc407d
Encoding settings : cabac=1 / ref=3 / deblock=1:-1:-1 / analyse=0x3:0x133 / me=tesa / subme=10 / psy=1 / psy_rd=1.00:0.15 / mixed_ref=1 / me_range=16 / chroma_me=1 / trellis=2 / 8x8dct=1 / cqm=0 / deadzone=21,11 / fast_pskip=1 / chroma_qp_offset=-3 / threads=8 / sliced_threads=0 / nr=0 / decimate=1 / interlaced=0 / bluray_compat=0 / constrained_intra=0 / bframes=3 / b_pyramid=1 / b_adapt=2 / b_bias=0 / direct=3 / weightb=1 / open_gop=0 / weightp=2 / keyint=230 / keyint_min=23 / scenecut=40 / intra_refresh=0 / rc_lookahead=40 / rc=cbr / mbtree=1 / bitrate=1855 / ratetol=1.0 / qcomp=0.60 / qpmin=10 / qpmax=51 / qpstep=4 / vbv_maxrate=1855 / vbv_bufsize=1855 / nal_hrd=none / ip_ratio=1.40 / aq=1:1.00
Language : English
Default : Yes
Forced : No

Audio
ID : 2
Format : AC-3
Format/Info : Audio Coding 3
Mode extension : CM (complete main)
Format settings, Endianness : Big
Codec ID : A_AC3
Duration : 2h 22mn
Bit rate mode : Constant
Bit rate : 448 Kbps
Channel(s) : 6 channels
Channel positions : Front: L C R, Side: L R, LFE
Sampling rate : 48.0 KHz
Bit depth : 16 bits
Compression mode : Lossy
Stream size : 455 MiB (20%)
Title : BD EUR
Language : Russian
Default : Yes
Forced : No

Text
ID : 3
Format : UTF-8
Codec ID : S_TEXT/UTF8
Codec ID/Info : UTF-8 Plain Text
Title : Forced
Language : Russian
Default : Yes
Forced : No





реклама партнёра


Вернуться к началу
 Профиль  
 
   Похожие торренты   Автор   Торрент   Размер 
В этой теме нет новых непрочитанных сообщений. Великий Гэтсби / The Great Gatsby [драма, мелодрама, 2013] HDRip, Dub [iPad]

salma3

80 | 12

1.91 ГБ

В этой теме нет новых непрочитанных сообщений. Великий Уолдо Пеппер / The Great Waldo Pepper [драма, приключения, 1975] HDRip, Mvo

salma3

28 | 5

1.45 ГБ

В этой теме нет новых непрочитанных сообщений. Великий экстаз Роберта Кармайкла / The Great Ecstasy of Robert Carmichael [драма, криминал, 2005] DVDRip, Avo

salma3

79 | 6

1.5 ГБ

В этой теме нет новых непрочитанных сообщений. Большие надежды / Great Expectations [драма, мелодрама, 1998] HDRip, Mvo

salma3

49 | 6

1.45 ГБ

В этой теме нет новых непрочитанных сообщений. Большие гонки / The Great Race [Мелодрама, комедия, приключения, 1965] HDRip-AVC, Dub

salma3

22 | 4

1.45 ГБ

В этой теме нет новых непрочитанных сообщений. Великий гипнотизёр / Cui mian da shi (Лэсте Чэнь) [Триллер, Драма, Детектив, 2014] HDRip, Avo

Dracon

12 | 0

1.46 ГБ

В этой теме нет новых непрочитанных сообщений. Великолепная Гилли Хопкинс / The Great Gilly Hopkins [Комедия, драма, семейный, 2016] HDRip, Mvo

salma3

1869 | 215

1.45 ГБ


Начать новую тему Ответить на тему  [ 1 сообщение ] 




Для Мосгорсуда, Роскомнадзора и рекламодателей:: mosgorsud-torrent[собачка]yandex.ru