Торрент файл
скачать торрент магнет ссылка Добавлен: 03 сен 2013, 16:14
Размер: 2.05 ГБ
Сидеров: 1
Личеров: 2
Статус: (PriZraK)
Автор

СообщениеДобавлено: 03 сен 2013, 16:14 

Не в сети
Зам. Админа
Аватара пользователя
Дата регистрации:
02 дек 2010, 12:39
Спасибо: 12461 / 214
Сообщения: 27968
Зажигание / Combustion (2013) BDRip

«И вспыхнет страсть»

Год выпуска: 2013
Производство: Испания / Antena 3 Films, Antena 3 Televisión, Canal+ España
Жанр: Мелодрама, Приключения, Боевик
Перевод: Дублированный [лицензия]
Субтитры: Отсутствуют

Дата мировой премьеры: 21 апреля 2013
Дата российской премьеры: 25 июля 2013, «Каравелла DDC»
Дата выхода DVD релиза: 4 сентября 2013, «Кармен Видео»

Режиссер: Даниэль Кальпарсо
Продюсер: Мерседес Гамеро, Франциско Рамос
Актеры: Алекс Гонсалес, Адриана Угарте, Альберто Амманн, Мария Кастро, Марта Ньето, Луис Захера, Кристиан Мулас, Хуан Пабло Шук

Описание фильма:
Навас и Ари — идеальная пара и профессиональные мошенники. Она — роковая красотка, соблазняющая богатых мужчин, а он — жестокий налетчик, который их грабит. Все меняется, когда Навас и Ари выбирают себе новую жертву — богатенького красавчика Микеля, в которого Ари влюбляется без памяти…



Продолжительность: 01:43:37
Качество видео: BDRip

Видеокодек: Xvid
Битрейт видео: ~1920 kb/s
Размер кадра: 720х304
Аудиокодек: AC3 5.1
Битрейт аудио#1: 448 kb/s (Русский)
Битрейт аудио#2: 448 kb/s (Английский)
Сэмпл: Скачать
Код:
Код:
  Общее
Полное имя                               : Zazhyganie.2013.D.HDRip.2100MB.nnm-club..avi
Формат                                   : AVI
Формат/Информация                        : Audio Video Interleave
Профиль формата                          : OpenDML
Размер файла                             : 2,05 Гбайт
Продолжительность                        : 1 ч. 43 м.
Общий поток                              : 2834 Кбит/сек
Программа кодирования                    : VirtualDubMod 1.5.10.2 (build 2540/release)
Библиотека кодирования                   : VirtualDubMod build 2540/release

Видео
Идентификатор                            : 0
Формат                                   : MPEG-4 Visual
Профиль формата                          : Advanced Simple@L5
Параметр BVOP формата                    : 2
Параметр QPel формата                    : Нет
Параметр GMC формата                     : Без точки перехода
Параметр матрицы формата                 : Выборочная
Идентификатор кодека                     : XVID
Идентификатор кодека/Подсказка           : XviD
Продолжительность                        : 1 ч. 43 м.
Битрейт                                  : 1920 Кбит/сек
Ширина                                   : 720 пикселей
Высота                                   : 304 пикселя
Соотношение сторон                       : 2,35:1
Частота кадров                           : 24,000 кадра/сек
Цветовое пространство                    : YUV
Субдискретизация насыщенности            : 4:2:0
Битовая глубина                          : 8 бит
Тип развёртки                            : Прогрессивная
Метод сжатия                             : С потерями
Бит/(Пиксели*Кадры)                      : 0.365
Размер потока                            : 1,39 Гбайт (68%)
Библиотека кодирования                   : XviD 1.2.1 (UTC 2008-12-04)

Аудио #1
Идентификатор                            : 1
Формат                                   : AC-3
Формат/Информация                        : Audio Coding 3
Расширение режима                        : CM (complete main)
Параметр Endianness формата              : Big
Идентификатор кодека                     : 2000
Продолжительность                        : 1 ч. 43 м.
Вид битрейта                             : Постоянный
Битрейт                                  : 448 Кбит/сек
Каналы                                   : 6 каналов
Расположение каналов                     : Front: L C R, Side: L R, LFE
Частота                                  : 48,0 КГц
Битовая глубина                          : 16 бит
Метод сжатия                             : С потерями
Размер потока                            : 332 Мбайт (16%)
Выравнивание                             : Разделение по промежуткам
Продолжительность промежутка             : 42  мс. (1,00 видеокадр)
Время предзагрузки промежутка            : 500  мс.

Аудио #2
Идентификатор                            : 2
Формат                                   : AC-3
Формат/Информация                        : Audio Coding 3
Расширение режима                        : CM (complete main)
Параметр Endianness формата              : Big
Идентификатор кодека                     : 2000
Продолжительность                        : 1 ч. 43 м.
Вид битрейта                             : Постоянный
Битрейт                                  : 448 Кбит/сек
Каналы                                   : 6 каналов
Расположение каналов                     : Front: L C R, Side: L R, LFE
Частота                                  : 48,0 КГц
Битовая глубина                          : 16 бит
Метод сжатия                             : С потерями
Размер потока                            : 332 Мбайт (16%)
Выравнивание                             : Разделение по промежуткам
Продолжительность промежутка             : 42  мс. (1,00 видеокадр)
Время предзагрузки промежутка            : 500  мс.
Скриншоты:





реклама партнёра


Вернуться к началу
 Профиль  
 
   Похожие торренты   Автор   Торрент   Размер 
В этой теме нет новых непрочитанных сообщений. 47 ронинов / 47 Ronin [фэнтези, боевик, приключения, 2013] BDRip 1080p, Dub+Sub [Лицензия]

Dracon

467 | 31

7.76 ГБ

В этой теме нет новых непрочитанных сообщений. 47 ронинов / 47 Ronin [фэнтези, боевик, приключения, 2013] BDRip 720p, Dub+Sub [Лицензия]

Dracon

1000 | 40

3.58 ГБ

В этой теме нет новых непрочитанных сообщений. Тихоокеанский рубеж / Pacific Rim [фантастика, боевик, приключения, 2013] BDRip-AVC, Dub+Sub [Лицензия]

salma3

265 | 9

1.45 ГБ

В этой теме нет новых непрочитанных сообщений. Гостья / The Host [фантастика, боевик, триллер, мелодрама, приключения, 2013] DVD5, Dub+Sub [Лицензия]

Dracon

28 | 4

4.37 ГБ

В этой теме нет новых непрочитанных сообщений. Помпеи / Pompeii [приключения, боевик, драма, мелодрама, 2014] BDRip 1080p, Dub+Sub [Лицензия]

Dracon

1 | 5

10.7 ГБ

В этой теме нет новых непрочитанных сообщений. Помпеи / Pompeii [приключения, боевик, драма, мелодрама, 2014] BDRip 720p, Dub+Sub [Лицензия]

Dracon

1 | 4

5.76 ГБ

В этой теме нет новых непрочитанных сообщений. Малефисента / Maleficent [фэнтези, боевик, мелодрама, приключения, семейный, 2014] BDRip 720p, Dub+Sub [лицензия]

Dracon

1632 | 59

4.36 ГБ


Начать новую тему Ответить на тему  [ 1 сообщение ] 




Для Мосгорсуда, Роскомнадзора и рекламодателей:: mosgorsud-torrent[собачка]yandex.ru