Торрент файл
скачать торрент магнет ссылка Добавлен: 03 сен 2013, 15:08
Размер: 1.37 ГБ
Сидеров: 5
Личеров: 3
Статус: (salma3)
Автор

СообщениеДобавлено: 03 сен 2013, 15:08 

Не в сети
Зам. Админа
Аватара пользователя
Дата регистрации:
02 дек 2010, 12:39
Спасибо: 12623 / 214
Сообщения: 28012
Форсаж 6 / Furious 6«Все дороги принадлежат им»

Год выпуска: 2013
Страна: США
Жанр: боевик, триллер, драма, криминал
Продолжительность: 02:11:02
Перевод: Профессиональный (дублированный) [Лицензия]
Cубтитры: нет
Оригинальная аудиодорожка: нет


Режиссер: Джастин Лин / Justin Lin

В ролях: Вин Дизель, Дуэйн Джонсон, Пол Уокер, Люк Эванс, Мишель Родригес, Джина Карано, Джордана Брюстер, Эльса Патаки, Гал Гадот, Тайрез Гибсон, Cанг Кенг, Лудакрис, Джо Таслим, Пол Блэкуэлл


Описание: После того как Доминик и Брайн побывали в Рио, где они ограбили и свергли империю вора в законе, их команда получила 100 миллионов, и наши герои оказались разбросаны по всему миру. Но их привычка вечно жить в бегах не даёт им покоя. Между тем, Хоббс отслеживал организацию смертельно опасных наёмников-водителей по двенадцати странам. Единственный способ остановить эту криминальную группу — это превзойти их на улицах, поэтому Хоббс просит Доминика собрать его элитную команду в Лондоне. За это он обещает полное помилование для Доминика и его друзей, чтобы они смогли наконец вернуться домой к своей семье.
Доп. информация: премьера (мир) 7 мая 2013




Качество видео: HDRip
Формат видео: AVI
Видео: 720x304 (2.35:1), 23.976 fps, XviD build 50 ~1064 kbps avg, 0.203 bit/pixel
Аудио: 48 kHz, AC3 Dolby Digital, 3/2 (L,C,R,l,r) + LFE ch, ~384.00 kbps avg

Общее
Полное имя : E:\Furious.6.2013.D.BDRip.avi
Формат : AVI
Формат/Информация : Audio Video Interleave
Размер файла : 1,37 Гбайт
Продолжительность : 2 ч. 11 м.
Общий поток : 1493 Кбит/сек
Программа кодирования : VirtualDubMod 1.5.10.2 (build 2540/release)
Библиотека кодирования : VirtualDubMod build 2540/release

Видео
Идентификатор : 0
Формат : MPEG-4 Visual
Профиль формата : Advanced Simple@L5
Параметр BVOP формата : 2
Параметр QPel формата : Нет
Параметр GMC формата : Без точки перехода
Параметр матрицы формата : Default (MPEG)
Идентификатор кодека : XVID
Идентификатор кодека/Подсказка : XviD
Продолжительность : 2 ч. 11 м.
Продолжительность оригинала : 1 ч. 35 м.
Битрейт : 1064 Кбит/сек
Ширина : 720 пикселей
Высота : 304 пикселя
Соотношение сторон : 2,35:1
Частота кадров : 23,976 кадра/сек
Цветовое пространство : YUV
Субдискретизация насыщенности : 4:2:0
Битовая глубина : 8 бит
Тип развёртки : Прогрессивная
Метод сжатия : С потерями
Бит/(Пиксели*Кадры) : 0.203
Размер потока : 729 Мбайт (52%)
Библиотека кодирования : XviD 1.2.1 (UTC 2008-12-04)

Аудио
Идентификатор : 1
Формат : AC-3
Формат/Информация : Audio Coding 3
Расширение режима : CM (complete main)
Параметр Endianness формата : Big
Идентификатор кодека : 2000
Продолжительность : 2 ч. 11 м.
Продолжительность оригинала : 1 ч. 35 м.
Вид битрейта : Постоянный
Битрейт : 384 Кбит/сек
Каналы : 6 каналов
Расположение каналов : Front: L C R, Side: L R, LFE
Частота : 48,0 КГц
Битовая глубина : 16 бит
Метод сжатия : С потерями
Размер потока : 263 Мбайт (19%)
Выравнивание : Разделение по промежуткам
Продолжительность промежутка : 42 мс. (1,00 видеокадр)
Время предзагрузки промежутка : 500 мс.





реклама партнёра


Вернуться к началу
 Профиль  
 
   Похожие торренты   Автор   Торрент   Размер 
В этой теме нет новых непрочитанных сообщений. Форсаж 7 / Furious 7 (Джеймс Ван) [боевик, триллер, криминал, 2015] BDRip-AVC, Dub [Extended cut | Лицензия]

Dracon

476 | 8

1.46 ГБ

В этой теме нет новых непрочитанных сообщений. Форсаж 7 / Furious 7 (Джеймс Ван) [боевик, триллер, криминал, 2015] BDRip 720p, Dub [Extended cut | Лицензия]

Dracon

1914 | 115

4.19 ГБ

В этой теме нет новых непрочитанных сообщений. Форсаж 7 / Furious 7 (Джеймс Ван) [боевик, триллер, криминал, 2015] BDRip, Dub [iTunes]

Dracon

32 | 1

2.06 ГБ

В этой теме нет новых непрочитанных сообщений. Форсаж 7 / Furious 7 (Джеймс Ван) [боевик, триллер, криминал, 2015] BDRip, Dub [iTunes]

Dracon

269 | 14

1.38 ГБ

В этой теме нет новых непрочитанных сообщений. Форсаж 7 / Furious 7 (Джеймс Ван) [боевик, триллер, криминал, 2015] WEB-DLRip, dub [ iTunes]

slawa4155

638 | 15

1.37 ГБ

В этой теме нет новых непрочитанных сообщений. Форсаж 7 / Furious 7 (Джеймс Ван) [боевик, триллер, криминал, 2015] WEB-DL 1080p, Dub [iTunes]

Dracon

2 | 1

4.7 ГБ

В этой теме нет новых непрочитанных сообщений. Форсаж 7 / Furious 7 (Джеймс Ван) [боевик, триллер, криминал, 2015] Blu-Ray Remux 1080p, Dub+Sub [iTunes]

Dracon

10 | 5

24.23 ГБ


Начать новую тему Ответить на тему  [ 1 сообщение ] 




Для Мосгорсуда, Роскомнадзора и рекламодателей:: mosgorsud-torrent[собачка]yandex.ru