Торрент файл
скачать торрент магнет ссылка Добавлен: 02 сен 2013, 15:03
Размер: 1.47 ГБ
Сидеров: 27
Личеров: 4
Статус: (PriZraK)
Автор

СообщениеДобавлено: 02 сен 2013, 15:03 

В сети
Супермодератор
Аватара пользователя
Дата регистрации:
15 фев 2012, 16:44
Возраст: 28
Спасибо: 6569 / 2136
Сообщения: 43761

Информация о фильме
Название: Похищена средь бела дня
Оригинальное название: Taken in Broad Daylight
Год выхода: 2009
Жанр: Триллер, драма, криминал
Режиссер: Гари Йэтс
В ролях: Сара Каннинг, Джеймс Ван Дер Бик, ЛеВар Бёртон, Дайана Рейс, Том Аннико, Брайан Роач, Александра Кастилло, Сара Констибл, Жаклин Ловен, Адриана О’Нил, Нэнси Дрэйк, Карл Тордарсон, Роберт Хакулак, Аарон Хьюз, Кристен Харрис, Кертис Мур

О фильме:
По мотивам реальных событий. Молодая девушка Энн Слати похищена матерым преступником. Ее ждет шесть страшных дней, наполненных мучениями, но ей все же удается помогать полиции следовать за ней и ее похитителем.


Страна: США
Студия: AMediaVision Partners 1, AMediaVision Productions, Two Lagoons Productions
Продолжительность: 01:22:35
Перевод: Профессиональный [двухголосый] (НТВ+)

Файл
Кодек: MPEG-4 AVC
Качество: HDTVRip (AVC)
Видео: 2300 Кбит/с, 1024x576, 25.000 кадр/с
Звук: Русский (АС3, 2 ch, 256 Кбит/с)

Семпл


Общее
Полное имя : Poxiwena.sred.bela.dnja.2009.x264.HDTVRip(AVC).MediaClub.mkv
Формат : Matroska
Версия формата : Version 2
Размер файла : 1,47 Гбайт
Продолжительность : 1 ч. 22 м.
Общий поток : 2557 Кбит/сек
Дата кодирования : UTC 2013-09-02 10:20:33
Программа кодирования : mkvmerge v5.4.0 ('Piper') built on Mar 10 2012 13:34:39
Библиотека кодирования : libebml v1.2.3 + libmatroska v1.3.0

Видео
Идентификатор : 1
Формат : AVC
Формат/Информация : Advanced Video Codec
Профиль формата : High@L4.1
Параметр CABAC формата : Да
Параметр ReFrames формата : 9 кадров
Идентификатор кодека : V_MPEG4/ISO/AVC
Продолжительность : 1 ч. 22 м.
Битрейт : 2300 Кбит/сек
Ширина : 1024 пикселя
Высота : 576 пикселей
Соотношение сторон : 16:9
Режим частоты кадров : Постоянный
Частота кадров : 25,000 кадров/сек
Цветовое пространство : YUV
Субдискретизация насыщенности : 4:2:0
Битовая глубина : 8 бит
Тип развёртки : Прогрессивная
Бит/(Пиксели*Кадры) : 0.156
Размер потока : 1,30 Гбайт (88%)
Библиотека кодирования : x264 core 125 r2208 d9d2288
Настройки программы : cabac=1 / ref=9 / deblock=1:-2:-2 / analyse=0x3:0x133 / me=umh / subme=10 / psy=1 / psy_rd=1.00:0.15 / mixed_ref=1 / me_range=32 / chroma_me=1 / trellis=2 / 8x8dct=1 / cqm=0 / deadzone=21,11 / fast_pskip=0 / chroma_qp_offset=-3 / threads=6 / lookahead_threads=1 / sliced_threads=0 / nr=0 / decimate=0 / interlaced=0 / bluray_compat=0 / constrained_intra=0 / bframes=8 / b_pyramid=2 / b_adapt=2 / b_bias=0 / direct=3 / weightb=1 / open_gop=0 / weightp=2 / keyint=250 / keyint_min=25 / scenecut=40 / intra_refresh=0 / rc=2pass / mbtree=0 / bitrate=2300 / ratetol=1.0 / qcomp=0.60 / qpmin=0 / qpmax=69 / qpstep=4 / cplxblur=20.0 / qblur=0.5 / ip_ratio=1.40 / pb_ratio=1.30 / aq=1:0.80
Default : Да
Forced : Нет

Аудио
Идентификатор : 2
Формат : AC-3
Формат/Информация : Audio Coding 3
Расширение режима : CM (complete main)
Параметр Endianness формата : Big
Идентификатор кодека : A_AC3
Продолжительность : 1 ч. 22 м.
Вид битрейта : Постоянный
Битрейт : 256 Кбит/сек
Каналы : 2 канала
Расположение каналов : Front: L R
Частота : 48,0 КГц
Битовая глубина : 16 бит
Метод сжатия : С потерями
Размер потока : 151 Мбайт (10%)
Язык : Russian
Default : Да
Forced : Нет


Релиз от:




реклама партнёра


Вернуться к началу
 Профиль Отправить личное сообщение  
 
   Похожие торренты   Автор   Торрент   Размер 
В этой теме нет новых непрочитанных сообщений. Идеальное ограбление / Daylight Robbery [триллер, драма, криминал, 2008] DVDRip, Mvo

salma3

17 | 4

690.24 МБ

В этой теме нет новых непрочитанных сообщений. Дневной свет / Daylight [Боевик, Приключения, Триллер, 1996] HDRip-AVC, Dub

salma3

11 | 0

745.68 МБ

В этой теме нет новых непрочитанных сообщений. Дневной свет / Daylight [боевик, триллер, приключения, 1996] BDRip 720p, Dub+Mvo+4Avo

salma3

8 | 4

5.81 ГБ

В этой теме нет новых непрочитанных сообщений. Отчаянный побег / Desperate Escape [Драма, криминал, детектив, 2009] HDTVRip, Mvo

salma3

41 | 5

1.37 ГБ

В этой теме нет новых непрочитанных сообщений. С меня хватит / Enough [Триллер, драма, криминал, 2002] HDTVRip-AVC, Dub

salma3

35 | 6

745.74 МБ

В этой теме нет новых непрочитанных сообщений. Охотник / O Cacador [s01] [драма, триллер, детектив, криминал, 2014] HDTVRip, dvo

Dracon

113 | 29

8.08 ГБ

В этой теме нет новых непрочитанных сообщений. Грязное дело / Hustle [Триллер, драма, криминал, детектив, 1975] HDTVRip-AVC, Mvo

salma3

8 | 2

1.75 ГБ


Начать новую тему Ответить на тему  [ 1 сообщение ] 




Для Мосгорсуда, Роскомнадзора и рекламодателей:: mosgorsud-torrent[собачка]yandex.ru