Торрент файл
скачать торрент магнет ссылка Добавлен: 01 сен 2013, 14:44
Размер: 1.46 ГБ
Сидеров: 236
Личеров: 7
Статус: (PriZraK)
Автор

СообщениеДобавлено: 01 сен 2013, 14:44 

Не в сети
Зам. Админа
Аватара пользователя
Дата регистрации:
02 дек 2010, 12:39
Спасибо: 12461 / 214
Сообщения: 27968
«Из домохозяек в звёзды»



Страна:Австралия
Студия: The Film Company, Wildheart Films
Жанр: мюзикл, мелодрама, комедия
Год выпуска: 2013
Продолжительность: 01:43:50

Перевод: Профессиональный (дублированный)
Субтитры: нет
Оригинальная аудиодорожка: нет

Режиссер: Марк Лампрелл / Mark Lamprell

В ролях: Лора Мишель Келли, Ронан Китинг, Магда Шубански, Дастин Клер, Хьюго Джонстон-Барт, Тэмсин Кэрролл, Корин Грант, Пиа Миранда, Натали Трэн, Камерон Лион...

Описание: Элсбет Диккенс — домохозяйка и мама двух чудесных близнецов. Её муж Джеймс работает в Гринпис и постоянно отсутствует дома, спасая то китов, то осьминогов. Чтобы между ними была какая то связь, Джеймс установил дома веб-камеру. Однажды Элсбет решила спеть перед ней песню, не зная, что трансляция идёт в интернет, и на следующий день проснулась знаменитой. Ей предложило контракт крупное рекламное агентство, и она уехала в столицу, оставив близнецов на няню. Столичная жизнь полна соблазнов, Элсбет ждёт мировой контракт. Что она выберет — славу и деньги или любовь мужа, которого никогда нет дома?





Исходник: pfa-god.720p.mkv + DVD5 R5
Тип релиза: HDRip
Контейнер: AVI

Видео: 720x304 (2.35:1), 25.000 fps, XVID ~1551 kbps avg, 0.295 bit/pixel
Аудио: Русский 48 kHz, AC3, 6 ch, 384.00 kbps Constant
Общее
Полное имя : Boginya.2013.D.HDRip_[Youtracker]_by_avproh.avi
Формат : AVI
Формат/Информация : Audio Video Interleave
Размер файла : 1,46 Гбайт
Продолжительность : 1 ч. 43 м.
Общий поток : 2009 Кбит/сек
Программа кодирования : VirtualDubModRus 1.5.10.2 (build 2542/release)
Библиотека кодирования : VirtualDubMod build 2542/release

Видео
Идентификатор : 0
Формат : MPEG-4 Visual
Профиль формата : Advanced Simple@L5
Параметр BVOP формата : 1
Параметр QPel формата : Нет
Параметр GMC формата : Без точки перехода
Параметр матрицы формата : Выборочная
Идентификатор кодека : XVID
Идентификатор кодека/Подсказка : XviD
Продолжительность : 1 ч. 43 м.
Битрейт : 1551 Кбит/сек
Ширина : 720 пикселей
Высота : 304 пикселя
Соотношение сторон : 2,35:1
Частота кадров : 24,000 кадра/сек
Цветовое пространство : YUV
Субдискретизация насыщенности : 4:2:0
Битовая глубина : 8 бит
Тип развёртки : Прогрессивная
Метод сжатия : С потерями
Бит/(Пиксели*Кадры) : 0.295
Размер потока : 1,13 Гбайт (77%)
Библиотека кодирования : XviD 65

Аудио
Идентификатор : 1
Формат : AC-3
Формат/Информация : Audio Coding 3
Расширение режима : CM (complete main)
Параметр Endianness формата : Big
Идентификатор кодека : 2000
Продолжительность : 1 ч. 43 м.
Вид битрейта : Постоянный
Битрейт : 448 Кбит/сек
Каналы : 6 каналов
Расположение каналов : Front: L C R, Side: L R, LFE
Частота : 48,0 КГц
Битовая глубина : 16 бит
Метод сжатия : С потерями
Размер потока : 333 Мбайт (22%)
Выравнивание : Разделение по промежуткам
Продолжительность промежутка : 42 мс. (1,00 видеокадр)
Время предзагрузки промежутка : 500 мс.






реклама партнёра


Вернуться к началу
 Профиль  
 
   Похожие торренты   Автор   Торрент   Размер 
В этой теме нет новых непрочитанных сообщений. Богиня любви / Goddess of Love [ужасы, триллер, драма, детектив, 2015] HDRip, Dvo

salma3

187 | 8

1.46 ГБ

В этой теме нет новых непрочитанных сообщений. Богиня Любви / Goddess of Love [фэнтези, комедия, 1988] DVDRip, Dvo

salma3

24 | 9

745.28 МБ

В этой теме нет новых непрочитанных сообщений. Latina Squirt Goddess / Латинская Богиня Сквирта (2016) WEB-DL

amadei

9 | 5

1.78 ГБ

В этой теме нет новых непрочитанных сообщений. Богиня любви / Goddess of Love [ужасы, триллер, драма, детектив, 2015] BDRip 720p, Dvo

salma3

663 | 90

3.62 ГБ

В этой теме нет новых непрочитанных сообщений. Спасти Санту / Saving Santa [мультфильм, мюзикл, комедия, семейный, 2013] HDRip, Dub [Лицензия]

Dracon

206 | 6

1.37 ГБ

В этой теме нет новых непрочитанных сообщений. Крыша / The Rooftop / Tian tai ai qing [мелодрама, мюзикл, комедия, боевик, 2013] HDRip, dvo

Dracon

20 | 2

1.47 ГБ

В этой теме нет новых непрочитанных сообщений. Уик-энд в Париже / Le Week-End [мелодрама, комедия, 2013] HDRip, Mvo [лицензия]

Dracon

195 | 9

1.46 ГБ


Начать новую тему Ответить на тему  [ 1 сообщение ] 




Для Мосгорсуда, Роскомнадзора и рекламодателей:: mosgorsud-torrent[собачка]yandex.ru