Торрент файл
скачать торрент магнет ссылка Добавлен: 01 сен 2013, 13:00
Размер: 1.45 ГБ
Сидеров: 17
Личеров: 4
Статус: (salma3)
Автор

СообщениеДобавлено: 01 сен 2013, 13:00 

Не в сети
Супермодератор
Аватара пользователя
Дата регистрации:
15 фев 2012, 16:44
Возраст: 27
Спасибо: 5139 / 2090
Сообщения: 17432

Побег: Живой груз / Escape: Human Cargo

Год выхода: 1998
Жанр: боевик, драма
Режиссер: Саймон Уинсер

В ролях: Трит Уильямс, Стивен Лэнг, Сэссон Габаи, Зеев Ревах, Лоуренс Дэйн, Ринан Хаим, Ури Гавриел, Джанет-Дэйн Грин, Брэндон Боун, Кристен Боун

О фильме:
Отправившись в Саудовскую Аравию на подписание контракта, Джон МакДональд рассчитывал пробыть там максимум неделю. Но поездка затянулась на долгие месяцы. После того, как он и местные шейхи «разошлись во взглядах на бизнес», Джона похитили из гостиничного номера, отобрали паспорт и бросили в тюрьму. Ему на помощь пришел новый друг — Деннис, американец, пять лет проработавший в Саудовской Аравии. Чтобы помочь Джону осуществить дерзкий план побега, Деннис поставил на карту собственную свободу. А Джон, чтобы вернуться домой, к семье, готов рискнуть жизнью…




Страна: США
Продолжительность: 01:44:14
Перевод: Профессиональный [многоголосый]

Файл
Качество: DVDRip
Формат файла: AVI
Видео кодек: XviD
Аудио кодек: AC3
Видео: Видео: 704x528 (1.33:1), 23.976 fps, XviD MPEG-4 ~1537 kbps avg, 0.17 bit/pixel
Аудио: 48 kHz, AC3 5.0 ~ 448.00 kbps av




Общее
Полное имя : D:1АААПобег_Живой груз.avi
Формат : AVI
Формат/Информация : Audio Video Interleave
Размер файла : 1,45 Гбайт
Продолжительность : 1 ч. 44 м.
Общий поток : 1995 Кбит/сек
Программа кодирования : VirtualDubMod 1.5.10.3 | http://www.virtualdub-fr.org || (build 2550/release)
Библиотека кодирования : VirtualDubMod build 2550/release

Видео
Идентификатор : 0
Формат : MPEG-4 Visual
Профиль формата : Advanced Simple@L5
Параметр BVOP формата : 2
Параметр QPel формата : Нет
Параметр GMC формата : Без точки перехода
Параметр матрицы формата : Default (MPEG)
Режим смешивания : Сжатый битовый поток
Идентификатор кодека : XVID
Идентификатор кодека/Подсказка : XviD
Продолжительность : 1 ч. 44 м.
Битрейт : 1538 Кбит/сек
Ширина : 704 пикселя
Высота : 528 пикселей
Соотношение сторон : 4:3
Частота кадров : 23,976 кадра/сек
Цветовое пространство : YUV
Субдискретизация насыщенности : 4:2:0
Битовая глубина : 8 бит
Тип развёртки : Прогрессивная
Метод сжатия : С потерями
Бит/(Пиксели*Кадры) : 0.173
Размер потока : 1,12 Гбайт (77%)
Библиотека кодирования : XviD 1.2.1 (UTC 2008-12-04)

Аудио
Идентификатор : 1
Формат : AC-3
Формат/Информация : Audio Coding 3
Расширение режима : CM (complete main)
Параметр Endianness формата : Big
Идентификатор кодека : 2000
Продолжительность : 1 ч. 44 м.
Вид битрейта : Постоянный
Битрейт : 448 Кбит/сек
Каналы : 5 каналов
Расположение каналов : Front: L C R, Side: L R
Частота : 48,0 КГц
Битовая глубина : 16 бит
Метод сжатия : С потерями
Размер потока : 334 Мбайт (22%)
Выравнивание : Разделение по промежуткам
Продолжительность промежутка : 42 мс. (1,00 видеокадр)
Время предзагрузки промежутка : 500 мс.



Релиз группа:Автор рипа:




реклама партнёра


Вернуться к началу
 Профиль Отправить личное сообщение  
 
   Похожие торренты   Автор   Торрент   Размер 
В этой теме нет новых непрочитанных сообщений. Ценный груз / Precious Cargo [боевик, триллер, драма, криминал, 2016] WEB-DLRip, Mvo

salma3

1977 | 77

1.37 ГБ

В этой теме нет новых непрочитанных сообщений. Ценный груз / Precious Cargo [Боевик, триллер, драма, криминал, 2016] BDRip 720p, Mvo

salma3

510 | 24

4.37 ГБ

В этой теме нет новых непрочитанных сообщений. Ценный груз / Precious Cargo [Боевик, триллер, драма, криминал, 2016] BDRemux 1080p, Mvo

salma3

93 | 7

24.67 ГБ

В этой теме нет новых непрочитанных сообщений. Побег из Захрейна / Escape from Zahrain [Боевик, драма, приключения, 1962] DVDRip, Avo

salma3

25 | 6

1.46 ГБ

В этой теме нет новых непрочитанных сообщений. Живой щит / The Human Shield [Боевик, военный, 1991] DVDRip, Avo

salma3

1 | 0

1.45 ГБ

В этой теме нет новых непрочитанных сообщений. Живой щит / Защитник / The Human Shield [Боевик, драма, приключения, 1991] DVD-5, Dvo [Лицензия]

salma3

0 | 5

4.09 ГБ

В этой теме нет новых непрочитанных сообщений. Пленница. Побег / Flukt / Escape [Драма, боевик, 2012] BDRip 1080p, Mvo+Avo+Sub

salma3

112 | 16

7.04 ГБ


Начать новую тему Ответить на тему  [ 1 сообщение ] 




Для Мосгорсуда, Роскомнадзора и рекламодателей:: mosgorsud-torrent[собачка]yandex.ru