Торрент файл
скачать торрент магнет ссылка Добавлен: 01 сен 2013, 11:18
Размер: 1.46 ГБ
Сидеров: 120
Личеров: 5
Статус: (salma3)
Автор

СообщениеДобавлено: 01 сен 2013, 11:18 

Не в сети
Зам. Админа
Аватара пользователя
Дата регистрации:
02 дек 2010, 12:39
Спасибо: 12461 / 214
Сообщения: 27968

Страна: Дания
Студия: Drama Deluxe, Duckling A/S
Жанр: триллер
Год выпуска: 2013
Продолжительность: 01:26:50

Перевод: Профессиональный (многоголосый)
Субтитры: нет
Оригинальная аудиодорожка: нет

Режиссер: Adam Neutzsky-Wulff

В ролях: Эстелла Уоррен, Уильям Болдуин, Катя Винтер, Сара Батлер, Джеффри Пирс, Ким Бодния, Клер Росс-Браун, Вивьенн МакКи, Оле Дюпон, Roohullah Rohein Hasani...

Описание: Известная актриса Эмили Мур и ее муж психиатр по имени Роберт, решают отдохнуть на удаленном средиземноморском острове. Но в первую же ночь в их дом приходит молодая женщина в истерике от смерти ее парня…





Исходник: DVD9 R5
Тип релиза: DVDRip
Контейнер: AVI

Видео: 720x304 (2.35:1), 25.000 fps, XVID ~2014 kbps avg, 0.368 bit/pixel
Аудио: Русский 48 kHz, AC3, 6 ch, 384.00 kbps Constant
Общее
Полное имя : Neznakomets.vnutri.2013.D.DVDRip_[Youtracker]_by_avproh.avi
Формат : AVI
Формат/Информация : Audio Video Interleave
Размер файла : 1,46 Гбайт
Продолжительность : 1 ч. 26 м.
Общий поток : 2407 Кбит/сек
Программа кодирования : VirtualDubMod 1.5.10.3 | http://www.virtualdub-fr.org || (build 2550/release)
Библиотека кодирования : VirtualDubMod build 2550/release

Видео
Идентификатор : 0
Формат : MPEG-4 Visual
Профиль формата : Advanced Simple@L5
Параметр BVOP формата : 1
Параметр QPel формата : Нет
Параметр GMC формата : Без точки перехода
Параметр матрицы формата : Выборочная
Идентификатор кодека : XVID
Идентификатор кодека/Подсказка : XviD
Продолжительность : 1 ч. 26 м.
Битрейт : 2014 Кбит/сек
Ширина : 720 пикселей
Высота : 304 пикселя
Соотношение сторон : 2,35:1
Частота кадров : 25,000 кадров/сек
Цветовое пространство : YUV
Субдискретизация насыщенности : 4:2:0
Битовая глубина : 8 бит
Тип развёртки : Прогрессивная
Метод сжатия : С потерями
Бит/(Пиксели*Кадры) : 0.368
Размер потока : 1,22 Гбайт (84%)
Библиотека кодирования : XviD 65

Аудио
Идентификатор : 1
Формат : AC-3
Формат/Информация : Audio Coding 3
Расширение режима : CM (complete main)
Параметр Endianness формата : Big
Идентификатор кодека : 2000
Продолжительность : 1 ч. 26 м.
Вид битрейта : Постоянный
Битрейт : 384 Кбит/сек
Каналы : 6 каналов
Расположение каналов : Front: L C R, Side: L R, LFE
Частота : 48,0 КГц
Битовая глубина : 16 бит
Метод сжатия : С потерями
Размер потока : 238 Мбайт (16%)
Выравнивание : Разделение по промежуткам
Продолжительность промежутка : 40 мс. (1,00 видеокадр)
Время предзагрузки промежутка : 500 мс.






реклама партнёра


Вернуться к началу
 Профиль  
 
   Похожие торренты   Автор   Торрент   Размер 
В этой теме нет новых непрочитанных сообщений. Интимный незнакомец / Intimate Stranger [Триллер, 1991] DVDRip, Mvo

salma3

3 | 5

1.46 ГБ

В этой теме нет новых непрочитанных сообщений. Ночной незнакомец / Чужак в ночи / Stranger by Night [триллер, 1994] DVDRip, Mvo

salma3

7 | 4

1.34 ГБ

В этой теме нет новых непрочитанных сообщений. Кто там в ночи / Чужак в ночи / Ночной незнакомец / Stranger by Night [триллер, 1994] DVDRip, Mvo

salma3

4 | 4

703 МБ

В этой теме нет новых непрочитанных сообщений. Когда звонит незнакомец / When a Stranger Calls [ужасы, триллер, 1979] BDRip, Avo

salma3

5 | 5

1.45 ГБ

В этой теме нет новых непрочитанных сообщений. Идеальный незнакомец / Perfect Stranger [триллер, драма, криминал, 2007] HDRip, Dub

salma3

170 | 12

1.46 ГБ

В этой теме нет новых непрочитанных сообщений. Когда звонит незнакомец / When a Stranger Calls [Ужасы, триллер, 1979] BDRip 720p, Avo+Sub

salma3

15 | 0

6.98 ГБ

В этой теме нет новых непрочитанных сообщений. Незнакомец / The Stranger (Гильермо Амоедо) [Ужасы, Триллер, Драма, Детектив, 2014] WEB-DLRip, avo

Dracon

3 | 1

1.46 ГБ


Начать новую тему Ответить на тему  [ 1 сообщение ] 




Для Мосгорсуда, Роскомнадзора и рекламодателей:: mosgorsud-torrent[собачка]yandex.ru