Торрент файл
скачать торрент магнет ссылка Добавлен: 01 сен 2013, 09:53
Размер: 1.47 ГБ
Сидеров: 1
Личеров: 2
Статус: (PriZraK)
Автор

СообщениеДобавлено: 01 сен 2013, 09:53 

Не в сети
Зам. Админа
Аватара пользователя
Дата регистрации:
02 дек 2010, 12:39
Спасибо: 12460 / 214
Сообщения: 27968


Год выпуска: 2013
Страна: США
Жанр: ужасы, триллер
Продолжительность: 01:27:42
Перевод: Одноголосый закадровый [den904]
Cубтитры: нет
Оригинальная аудиодорожка: английский
Режиссер: Б.С. Фертни / B.C. Furtney
В ролях: Кори Хэйм, Стивен Джеффрис, Тиффани Шепис, Эзра Баззингтон, Джереми Мун, Даниэль Фортуэнглер, Джеймс Грабовски, Сэм Никотеро, Энтони Коллиано, Лаура Ли
Описание: Сценарист приглашает импрессарио к себе в квартиру, расположенную у черта на куличках и устраивает ему камеру пыток, но делает он это неспроста ...
Доп. информация: перевод на русский язык [chup]
работа со звуком [КОЛОБОК]


Качество видео: WEB-DLRip
Формат видео: MKV
Видео: AVC, 1024 x 436 (2.349), 23.962 fps, ~1968 kb/s
Аудио: AC-3, 2 ch, 48 КHz, 192 kb/s Ru
Аудио 2: AC-3, 2 ch, 48 КHz, 192 kb/s En
MediaInfo
Общее
Уникальный идентификатор : 187413912418782799007506940218442604173 (0x8CFE9B49A0883C77B587629761BD5E8D)
Полное имя : D:\AVI\Do.Not.Disturb.2013.WEBRip-AVC.mkv
Формат : Matroska
Версия формата : Version 2
Размер файла : 1,47 Гбайт
Продолжительность : 1 ч. 27 м.
Общий поток : 2403 Кбит/сек
Дата кодирования : UTC 2013-09-01 03:43:54
Программа кодирования : mkvmerge v4.0.0 ('The Stars were mine') сборка от Jun 5 2010 17:44:09
Библиотека кодирования : libebml v1.0.0 + libmatroska v1.0.0

Видео
Идентификатор : 1
Формат : AVC
Формат/Информация : Advanced Video Codec
Профиль формата : Baseline@L3.1
Параметр CABAC формата : Нет
Параметр ReFrames формата : 1 кадр
Параметр GOP формата : M=1, N=12
Идентификатор кодека : V_MPEG4/ISO/AVC
Продолжительность : 1 ч. 27 м.
Битрейт : 1971 Кбит/сек
Ширина : 1024 пикселя
Высота : 436 пикселей
Соотношение сторон : 2,35:1
Режим частоты кадров : Постоянный
Частота кадров : 23,976 кадра/сек
Цветовое пространство : YUV
Субдискретизация насыщенности : 4:2:0
Битовая глубина : 8 бит
Тип развёртки : Прогрессивная
Бит/(Пиксели*Кадры) : 0.184
Размер потока : 1,21 Гбайт (82%)
Default : Нет
Forced : Нет

Аудио #1
Идентификатор : 2
Формат : AC-3
Формат/Информация : Audio Coding 3
Расширение режима : CM (complete main)
Параметр Endianness формата : Big
Идентификатор кодека : A_AC3
Продолжительность : 1 ч. 27 м.
Вид битрейта : Постоянный
Битрейт : 192 Кбит/сек
Каналы : 2 канала
Расположение каналов : Front: L R
Частота : 48,0 КГц
Битовая глубина : 16 бит
Метод сжатия : С потерями
Размер потока : 120 Мбайт (8%)
Default : Да
Forced : Нет

Аудио #2
Идентификатор : 3
Формат : AC-3
Формат/Информация : Audio Coding 3
Расширение режима : CM (complete main)
Параметр Endianness формата : Big
Идентификатор кодека : A_AC3
Продолжительность : 1 ч. 27 м.
Вид битрейта : Постоянный
Битрейт : 192 Кбит/сек
Каналы : 2 канала
Расположение каналов : Front: L R
Частота : 48,0 КГц
Битовая глубина : 16 бит
Метод сжатия : С потерями
Размер потока : 120 Мбайт (8%)
Default : Нет
Forced : Нет
Скриншоты




реклама партнёра


Вернуться к началу
 Профиль  
 
   Похожие торренты   Автор   Торрент   Размер 
В этой теме нет новых непрочитанных сообщений. Просьба не беспокоить / Do Not Disturb (Найджел Коул / Nigel Cole) [2016г., Великобритания, комедия, TVRip] VO

Alfredovich

70 | 10

492.03 МБ

В этой теме нет новых непрочитанных сообщений. Под землей / Beneath [ужасы, триллер, 2013] WEB-DLRip, avo

Dracon

48 | 2

839.64 МБ

В этой теме нет новых непрочитанных сообщений. Санаторий / Sanitarium [Ужасы, триллер, 2013] WEB-DLRip, Mvo

Dracon

73 | 3

2.04 ГБ

В этой теме нет новых непрочитанных сообщений. Дом войны / Warhouse [ужасы, триллер, 2013] WEB-DLRip, Mvo [НТВ+]

Dracon

963 | 383

1.37 ГБ

В этой теме нет новых непрочитанных сообщений. Недоносок / Slink [ужасы, триллер, 2013] WEB-DLRip, Dvo

salma3

506 | 39

1.37 ГБ

В этой теме нет новых непрочитанных сообщений. Появление / The Appearing [ужасы, триллер, детектив, 2013] WEB-DLRip, Dvo

salma3

368 | 11

1.36 ГБ

В этой теме нет новых непрочитанных сообщений. Волчья яма 2 / Wolf Creek 2 [ужасы, триллер, 2013] WEB-DLRip, dvo

Dracon

1145 | 23

1.47 ГБ


Начать новую тему Ответить на тему  [ 1 сообщение ] 




Для Мосгорсуда, Роскомнадзора и рекламодателей:: mosgorsud-torrent[собачка]yandex.ru