Торрент файл
скачать торрент магнет ссылка Добавлен: 31 авг 2013, 19:50
Размер: 1.46 ГБ
Сидеров: 1616
Личеров: 92
Статус: (salma3)
Автор

СообщениеДобавлено: 31 авг 2013, 19:50 

Не в сети
Зам. Админа
Аватара пользователя
Дата регистрации:
02 дек 2010, 12:39
Спасибо: 12461 / 214
Сообщения: 27968
«Где украсть красивую жизнь?»



Страна: США, Великобритания, Франция, Германия, Япония
Студия: American Zoetrope, NALA Films LLC...
Жанр: драма, криминал
Год выпуска: 2013
Продолжительность: 01:26:34

Перевод: Профессиональный (дублированный)
Субтитры: нет
Оригинальная аудиодорожка: нет

Режиссер: София Коппола / Sofia Coppola

В ролях: Израэль Бруссар, Кэти Чанг, Эмма Уотсон, Таисса Фармига, Клер Элис Жюльен, Гэвин Россдэйл, Джорджия Рок, Лесли Манн, Карлос Миранда, Стэйси Эдвардс...

Описание: В поисках адреналина и приключений пятеро отчаянных подростков ради прикола стали навещать богатые особняки в окрестностях Голливуда. Наведываясь в гости к Линдси Лохан, Орландо Блуму, Пэрис Хилтон и другим голливудским звездам, девушки, конечно, больше интересовались дизайнерской одеждой и драгоценностями, а юноши — просто деньгами. Совершив десять краж со взломом, ребятки награбили больше трех миллионов долларов…





Исходник: DVD5 R5
Тип релиза: DVDRip
Контейнер: AVI

Видео: 720x384 (1.85:1), 25.000 fps, XVID ~2016 kbps avg, 0.292 bit/pixel
Аудио: Русский 48 kHz, AC3, 6 ch, 384.00 kbps Constant
Общее
Полное имя : Elitnoye.obshestvo.2013.D.DVDRip_[Youtracker]_by_avproh.avi
Формат : AVI
Формат/Информация : Audio Video Interleave
Размер файла : 1,46 Гбайт
Продолжительность : 1 ч. 26 м.
Общий поток : 2409 Кбит/сек
Программа кодирования : VirtualDubMod 1.5.10.3 | http://www.virtualdub-fr.org || (build 2550/release)
Библиотека кодирования : VirtualDubMod build 2550/release

Видео
Идентификатор : 0
Формат : MPEG-4 Visual
Профиль формата : Advanced Simple@L5
Параметр BVOP формата : 1
Параметр QPel формата : Нет
Параметр GMC формата : Без точки перехода
Параметр матрицы формата : Выборочная
Идентификатор кодека : XVID
Идентификатор кодека/Подсказка : XviD
Продолжительность : 1 ч. 26 м.
Битрейт : 2016 Кбит/сек
Ширина : 720 пикселей
Высота : 384 пикселя
Соотношение сторон : 1,85:1
Частота кадров : 25,000 кадров/сек
Цветовое пространство : YUV
Субдискретизация насыщенности : 4:2:0
Битовая глубина : 8 бит
Тип развёртки : Прогрессивная
Метод сжатия : С потерями
Бит/(Пиксели*Кадры) : 0.292
Размер потока : 1,22 Гбайт (84%)
Библиотека кодирования : XviD 65

Аудио
Идентификатор : 1
Формат : AC-3
Формат/Информация : Audio Coding 3
Расширение режима : CM (complete main)
Параметр Endianness формата : Big
Идентификатор кодека : 2000
Продолжительность : 1 ч. 26 м.
Вид битрейта : Постоянный
Битрейт : 384 Кбит/сек
Каналы : 6 каналов
Расположение каналов : Front: L C R, Side: L R, LFE
Частота : 48,0 КГц
Битовая глубина : 16 бит
Метод сжатия : С потерями
Размер потока : 238 Мбайт (16%)
Выравнивание : Разделение по промежуткам
Продолжительность промежутка : 40 мс. (1,00 видеокадр)
Время предзагрузки промежутка : 500 мс.






реклама партнёра


Вернуться к началу
 Профиль  
 
   Похожие торренты   Автор   Торрент   Размер 
В этой теме нет новых непрочитанных сообщений. Общество мертвых поэтов / Dead Poets Society [драма, 1989] BDRip-AVC, Dub+Sub [Лицензия]

salma3

144 | 3

1.46 ГБ

В этой теме нет новых непрочитанных сообщений. Король Сингх 2 / Крутой Сингх / Singh Is Bling [боевик, драма, мелодрама, комедия, 2015] DVDRip. Dvo+Sub

salma3

491 | 90

2.06 ГБ

В этой теме нет новых непрочитанных сообщений. Станица [01-12 из 12] (Владимир Шевельков) [2013, детектив, драма, криминал, DVDRip | лицензия]

Nickolas3435

124 | 18

8.74 ГБ

В этой теме нет новых непрочитанных сообщений. Общество мертвых поэтов / Dead Poets Society [драма, 1989] DVDRip, Mvo

salma3

78 | 3

1.36 ГБ

В этой теме нет новых непрочитанных сообщений. Грязь / Filth [Драма, комедия, криминал, 2013] DVDRip-AVC, Dub [Лицензия]+Avo [Гоблин / звук с TS]

Dracon

53 | 3

1.58 ГБ

В этой теме нет новых непрочитанных сообщений. Джо / Joe [драма, криминал, 2013] HDRip, Mvo [лицензия]

Dracon

2212 | 93

1.46 ГБ

В этой теме нет новых непрочитанных сообщений. Железный ринг / Ring of Steel [Боевик, драма, 1994] DVDRip, Avo

salma3

31 | 7

1.45 ГБ


Начать новую тему Ответить на тему  [ 1 сообщение ] 




Для Мосгорсуда, Роскомнадзора и рекламодателей:: mosgorsud-torrent[собачка]yandex.ru