Торрент файл
скачать торрент магнет ссылка Добавлен: 31 авг 2013, 19:43
Размер: 2.05 ГБ
Сидеров: 48
Личеров: 6
Статус: (PriZraK)
Автор

СообщениеДобавлено: 31 авг 2013, 19:43 

Не в сети
Зам. Админа
Аватара пользователя
Дата регистрации:
02 дек 2010, 12:39
Спасибо: 12460 / 214
Сообщения: 27968


Год выхода: 2012
Жанр: Триллер, драма
Режиссер: Остин Чик
В ролях: Даниэль Панабэйкер, Николь Лалиберт, Лиам Эйкен, Майкл Сталь-Дэвид, Мэттью Ройч, Каролин Лагерфельт, Рейна Де Корси, Эндрю Ховард, Марло Маррон, Софи Перез, Николас Маккароне, Виториа Сетта, Уилл Брилл, Кармине ДиБенедетто, Сьюзи Чо, Келвин Хейл, Джеймс Ортиз, Макензи Ли, Дэннис Джонсон, Рауль Кассо, Джон Кроуфорд, Аарон Дискин

О фильме:
Психологический триллер о двух девушках, которые убивают парней ради морального удовлетворения. Изощренно убивая своих бывших обидчиков, они погружаются в глубокую яму, выхода из которой просто нет.
Рейтинг R - Детям до 17 лет обязательно присутствие родителей
Рейтинг R получают фильмы, в содержании которых обязательно содержится материал, предназначенный только для взрослой аудитории. Родителям рекомендуется хорошо подумать, прежде чем посмотреть такой фильм вместе со своими детьми.

Фильм, получивший рейтинг R, скорее всего содержит сексуальные сцены, эпизоды с употреблением наркотиков, нецензурную брань, фрагменты с насилием и т.д.
Полное имя : H:ФильмСделать русский переводГотовые сделаные релизыDevochki.protiv.malchikov.2012.x264.BDRip.AVC-MediaClub.mkv
Формат : Matroska
Версия формата : Version 2
Размер файла : 2,05 Гбайт
Продолжительность : 1 ч. 33 м.
Общий поток : 3146 Кбит/сек
Название фильма : Devochki protiv malchikov (2012) BDRip-AVC=MediaClub=-[Викс]-
Дата кодирования : UTC 2013-08-31 07:35:16
Программа кодирования : mkvmerge v5.8.0 ('No Sleep / Pillow') built on Sep 2 2012 15:37:04
Библиотека кодирования : libebml v1.2.3 + libmatroska v1.3.0

Видео
Идентификатор : 1
Формат : AVC
Формат/Информация : Advanced Video Codec
Профиль формата : High@L4.1
Параметр CABAC формата : Да
Параметр ReFrames формата : 8 кадров
Идентификатор кодека : V_MPEG4/ISO/AVC
Продолжительность : 1 ч. 33 м.
Битрейт : 2250 Кбит/сек
Ширина : 1024 пикселя
Высота : 576 пикселей
Соотношение сторон : 16:9
Режим частоты кадров : Постоянный
Частота кадров : 23,976 кадра/сек
Цветовое пространство : YUV
Субдискретизация насыщенности : 4:2:0
Битовая глубина : 8 бит
Тип развёртки : Прогрессивная
Бит/(Пиксели*Кадры) : 0.159
Размер потока : 1,42 Гбайт (70%)
Библиотека кодирования : x264 core 133 r2334 a3ac64b
Настройки программы : cabac=1 / ref=8 / deblock=1:-2:-2 / analyse=0x3:0x113 / me=umh / subme=11 / psy=1 / psy_rd=1.00:0.00 / mixed_ref=1 / me_range=48 / chroma_me=1 / trellis=2 / 8x8dct=1 / cqm=0 / deadzone=21,11 / fast_pskip=0 / chroma_qp_offset=-2 / threads=6 / lookahead_threads=1 / sliced_threads=0 / nr=0 / decimate=0 / interlaced=0 / bluray_compat=0 / constrained_intra=0 / bframes=8 / b_pyramid=2 / b_adapt=2 / b_bias=0 / direct=3 / weightb=1 / open_gop=0 / weightp=2 / keyint=240 / keyint_min=23 / scenecut=40 / intra_refresh=0 / rc_lookahead=40 / rc=2pass / mbtree=0 / bitrate=2250 / ratetol=1.0 / qcomp=0.60 / qpmin=0 / qpmax=69 / qpstep=4 / cplxblur=20.0 / qblur=0.5 / vbv_maxrate=50000 / vbv_bufsize=52500 / nal_hrd=none / ip_ratio=1.40 / pb_ratio=1.30 / aq=1:0.80
Язык : English
Default : Да
Forced : Нет

Аудио #1
Идентификатор : 2
Формат : AC-3
Формат/Информация : Audio Coding 3
Расширение режима : CM (complete main)
Параметр Endianness формата : Big
Идентификатор кодека : A_AC3
Продолжительность : 1 ч. 33 м.
Вид битрейта : Постоянный
Битрейт : 448 Кбит/сек
Каналы : 6 каналов
Расположение каналов : Front: L C R, Side: L R, LFE
Частота : 48,0 КГц
Битовая глубина : 16 бит
Метод сжатия : С потерями
Размер потока : 298 Мбайт (14%)
Язык : Russian
Default : Да
Forced : Нет

Аудио #2
Идентификатор : 3
Формат : AC-3
Формат/Информация : Audio Coding 3
Расширение режима : CM (complete main)
Параметр Endianness формата : Big
Идентификатор кодека : A_AC3
Продолжительность : 1 ч. 33 м.
Вид битрейта : Постоянный
Битрейт : 448 Кбит/сек
Каналы : 6 каналов
Расположение каналов : Front: L C R, Side: L R, LFE
Частота : 48,0 КГц
Битовая глубина : 16 бит
Метод сжатия : С потерями
Размер потока : 298 Мбайт (14%)
Язык : English
Default : Нет
Forced : Нет

Текст
Идентификатор : 4
Формат : UTF-8
Идентификатор кодека : S_TEXT/UTF8
Идентификатор кодека/Информация : UTF-8 Plain Text
Язык : Russian
Default : Да
Forced : Нет

Меню
00:00:00.000 : :Chapter 01
00:07:58.478 : :Chapter 02
00:16:34.618 : :Chapter 03
00:24:30.135 : :Chapter 04
00:32:58.184 : :Chapter 05
00:43:01.578 : :Chapter 06
00:49:15.619 : :Chapter 07
00:56:25.215 : :Chapter 08
01:03:03.196 : :Chapter 09
01:11:53.392 : :Chapter 10
01:18:58.567 : :Chapter 11
01:28:29.178 : :Chapter 12
01:33:06.122 : :Chapter 13
x264 [info]: frame I:823 Avg QP:14.69 size: 78030
x264 [info]: frame P:28674 Avg QP:18.06 size: 25480
x264 [info]: frame B:104444 Avg QP:19.94 size: 7418


Страна: США
Студия: Floren Shieh Productions
Продолжительность: 01:33:06
Перевод: Любительский одноголосый (den904)

Кодек: x264
Качество: BDRip (AVC)
Видео: MPEG-4 AVC, 2250 Кбит/с, 1024x576, 23.976 кадр/с
Звук:
Аудио #1: Русский (AC3, 6 ch, 448 Кбит/с) / Любительский одноголосый (den904)
Аудио #2: Английский (AC3, 6 ch, 448 Кбит/с)
Субтитры: Русские

Семпл



Релиз от: Рип, работа с аудио - Викс




реклама партнёра


Вернуться к началу
 Профиль  
 
   Похожие торренты   Автор   Торрент   Размер 
В этой теме нет новых непрочитанных сообщений. Девочки против мальчиков / Girls Against Boys [ужасы, триллер, драма, 2012] BDRip 1080p, Avo

salma3

54 | 43

7.33 ГБ

В этой теме нет новых непрочитанных сообщений. Очень хорошие девочки / Very Good Girls [Драма, 2013] BDRip 720p, Mvo [НТВ+]

Dracon

37 | 5

3.75 ГБ

В этой теме нет новых непрочитанных сообщений. Очень хорошие девочки / Very Good Girls (Наоми Фонер) [Драма, 2013] BDRip 1080p, Mvo [лицензия]

Dracon

1 | 4

6.83 ГБ

В этой теме нет новых непрочитанных сообщений. Milfs Swallowing Boys / Мамочки Заглатывают Мальчиков (2016) WEB-DL

amadei

8 | 3

900.91 МБ

В этой теме нет новых непрочитанных сообщений. Girls Love Girls 3 / Девочки Любят Девочек 3 (Sunlust Pictures) [2015 г., WEBRip]

max77777

1 | 0

1.47 ГБ

В этой теме нет новых непрочитанных сообщений. Девочки, ставшие мертвецами / Girls Gone Dead [ужасы, 2012] HDRip, Dvo

salma3

62 | 3

1.45 ГБ

В этой теме нет новых непрочитанных сообщений. Девочки хотят повеселиться / Girls Just Want to Have Fun [мелодрама, комедия, музыка, 1985] BDRip 1080p, Dvo

salma3

30 | 15

9.44 ГБ


Начать новую тему Ответить на тему  [ 1 сообщение ] 




Для Мосгорсуда, Роскомнадзора и рекламодателей:: mosgorsud-torrent[собачка]yandex.ru