Торрент файл
скачать торрент магнет ссылка Добавлен: 30 авг 2013, 23:02
Размер: 1.46 ГБ
Сидеров: 514
Личеров: 22
Статус: (salma3)
Автор

СообщениеДобавлено: 30 авг 2013, 23:02 

В сети
Супермодератор
Аватара пользователя
Дата регистрации:
15 фев 2012, 16:44
Возраст: 27
Спасибо: 5130 / 2089
Сообщения: 17364
«Добро пожаловать в его владения»

Ледник / Frost

Год выхода: 2012
Жанр: ужасы, фантастика, триллер
Режиссер: Рейнир Лингдаль / Reynir Lyngdal

В ролях: Анна Гунндис Гюдмундсдоттир, Хельги Бьёрнссон, Эйнар Дагбьяртссон, Валур Фрейр Эйнарссон, Элма Лиза Гуннарсдотир, Бьяртур Гудмундссон, Халлур Инголфссон, Хилмир Дженссон, Хилмар Йонсон, Хальфдан Педерсен...

О фильме:
Молодая пара ученых отправляется на скованную льдами исследовательскую базу. Весь ее персонал бесследно исчез. Они — единственные живые души на сотни километров. Но чем ближе ученые оказываются к чудовищной разгадке, тем отчетливее понимают, за каждым их шагом наблюдает кто-то третий — таинственное нечто. И они — его последние гости.



Страна: Исландия, Финляндия
Продолжительность: 01:18:46
Перевод: Профессиональный (одноголосый, закадровый)

Файл
Качество: DVDRip
Формат файла: AVI
Видео кодек: XviD
Аудио кодек: AC3
Видео: Видео: 720x320 (2.25:1), 25.000 fps, XVID ~2203 kbps avg, 0.383 bit/pixel
Аудио: Русский 48 kHz, AC3, 6 ch, 448.00 kbps Constant




Общее
Полное имя : Lednik.2012.D.DVDRip[Youtracker]_by_avproh.avi
Формат : AVI
Формат/Информация : Audio Video Interleave
Размер файла : 1,46 Гбайт
Продолжительность : 1 ч. 18 м.
Общий поток : 2661 Кбит/сек
Программа кодирования : VirtualDubMod 1.5.10.3 | http://www.virtualdub-fr.org || (build 2550/release)
Библиотека кодирования : VirtualDubMod build 2550/release

Видео
Идентификатор : 0
Формат : MPEG-4 Visual
Профиль формата : Advanced Simple@L5
Параметр BVOP формата : 1
Параметр QPel формата : Нет
Параметр GMC формата : Без точки перехода
Параметр матрицы формата : Выборочная
Идентификатор кодека : XVID
Идентификатор кодека/Подсказка : XviD
Продолжительность : 1 ч. 18 м.
Битрейт : 2203 Кбит/сек
Ширина : 720 пикселей
Высота : 320 пикселей
Соотношение сторон : 2,25:1
Частота кадров : 25,000 кадров/сек
Цветовое пространство : YUV
Субдискретизация насыщенности : 4:2:0
Битовая глубина : 8 бит
Тип развёртки : Прогрессивная
Метод сжатия : С потерями
Бит/(Пиксели*Кадры) : 0.383
Размер потока : 1,21 Гбайт (83%)
Библиотека кодирования : XviD 65

Аудио
Идентификатор : 1
Формат : AC-3
Формат/Информация : Audio Coding 3
Расширение режима : CM (complete main)
Параметр Endianness формата : Big
Идентификатор кодека : 2000
Продолжительность : 1 ч. 18 м.
Вид битрейта : Постоянный
Битрейт : 448 Кбит/сек
Каналы : 6 каналов
Расположение каналов : Front: L C R, Side: L R, LFE
Частота : 48,0 КГц
Битовая глубина : 16 бит
Метод сжатия : С потерями
Размер потока : 252 Мбайт (17%)
Выравнивание : Разделение по промежуткам
Продолжительность промежутка : 40 мс. (1,00 видеокадр)
Время предзагрузки промежутка : 500 мс.




реклама партнёра


Вернуться к началу
 Профиль Отправить личное сообщение  
 
   Похожие торренты   Автор   Торрент   Размер 
В этой теме нет новых непрочитанных сообщений. Кровавый ледник / Blutgletscher [ужасы, 2013] HDRip, Avo

salma3

9 | 2

1.54 ГБ

В этой теме нет новых непрочитанных сообщений. Портрет вампира / Frost: Portrait of a vampire [ужасы, триллер, 2003] SATRip, Mvo

salma3

19 | 4

1.09 ГБ

В этой теме нет новых непрочитанных сообщений. Снеговик / Jack Frost [Ужасы, комедия, 1997] DVDRip, Avo

salma3

16 | 4

1.48 ГБ

В этой теме нет новых непрочитанных сообщений. Хозяева подземелий / Rats [ужасы, фантастика, триллер, 2003] DVDRip, Mvo [Лицензия] [UNRATED]

salma3

86 | 6

1.45 ГБ

В этой теме нет новых непрочитанных сообщений. Dead Frost [Arcade, 2016] [Лицензия]

viber

1 | 0

11.06 МБ

В этой теме нет новых непрочитанных сообщений. Резня зомби / Zombie Massacre [ужасы, фантастика, боевик, 2012] DVD9, Mvo+Sub [лицензия]

salma3

7 | 4

4.66 ГБ

В этой теме нет новых непрочитанных сообщений. Сверхновая / Supernova [Ужасы, фантастика, триллер, 2000] BDRip, Mvo [Лицензия]

salma3

91 | 7

1.45 ГБ


Начать новую тему Ответить на тему  [ 1 сообщение ] 




Для Мосгорсуда, Роскомнадзора и рекламодателей:: mosgorsud-torrent[собачка]yandex.ru