Торрент файл
скачать торрент магнет ссылка Добавлен: 29 авг 2013, 20:25
Размер: 1.39 ГБ
Сидеров: 25
Личеров: 10
Статус: (PriZraK)
Автор

СообщениеДобавлено: 29 авг 2013, 20:25 

Не в сети
Зам. Админа
Аватара пользователя
Дата регистрации:
02 дек 2010, 12:39
Спасибо: 12512 / 214
Сообщения: 28052




Год выпуска: 2012
Страна: США
Жанр: приключенческая комедия
Продолжительность: 01:34:03Перевод: Профессиональный (двухголосый закадровый) (НТВ+, перевод Ксении Азаровой,
текст читают Ольга Голованова, Василий Зотов)
Cубтитры: нет
Оригинальная аудиодорожка: нет

Режиссер: Рон Ньюкомб / Ron Newcomb

В ролях: Джастин Мо / Justin Moe (Randall), Джейми Белл / Jayme Bell (Squirrelly), Коул Мэтсон / Cole Matson (Nate), Эмма Эрнест / Emma Earnest (Stacey)

Описание: Рэндалл Дули работает в магазине компьютерных игр и все свое свободное время тратит на онлайн-игры. Старший брат постоянно над ним подшучивает, мама его не понимает, к тому же он безнадежно влюблен в капитаншу команды чирлидеров. Однажды Рэндалл узнает, что во Флориде пройдет чемпионат по игре "Властелин колец". Он едет туда с твердым намерением победить. (анонс канала "Премьера")Доп. информация: Запись со спутника (телеканал "Премьера").
Сэмпл:

Качество видео: DVB
Формат видео: MPEG-PS
Видео: MPEG Video 2, 720x576@1024x576 (16:9), 25 fps, ~1884 kbps avg, 0.182 bit/pixel
Аудио: 48 kHz, MPEG Audio 2, 2 ch, ~192.00 kbps avg

Полное имя : H:\My Torrents\[apreder]The_Fellows_Hip_Rise_of_the_Gamers(2012)DVB.mpg
Формат : MPEG-PS
Размер файла : 1,39 Гбайт
Продолжительность : 1 ч. 34 м.
Режим общего битрейта : Переменный
Общий поток : 2118 Кбит/сек

Видео
Идентификатор : 224 (0xE0)
Формат : MPEG Video
Версия формата : Version 2
Профиль формата : Main@Main
Параметр BVOP формата : Да
Параметр матрицы формата : Выборочная
Параметр GOP формата : Variable
Продолжительность : 1 ч. 34 м.
Вид битрейта : Переменный
Битрейт : 1884 Кбит/сек
Ширина : 720 пикселей
Высота : 576 пикселей
Соотношение сторон : 16:9
Частота кадров : 25,000 кадров/сек
Стандарт вещания : PAL
Цветовое пространство : YUV
Субдискретизация насыщенности : 4:2:0
Битовая глубина : 8 бит
Тип развёртки : Чересстрочная
Порядок развёртки : Верхнее поле первое
Метод сжатия : С потерями
Бит/(Пиксели*Кадры) : 0.182
TimeCode_FirstFrame : 00:00:00:00
TimeCode_Source : Group of pictures header
Размер потока : 1,24 Гбайт (89%)

Аудио
Идентификатор : 192 (0xC0)
Формат : MPEG Audio
Версия формата : Version 1
Профиль формата : Layer 2
Продолжительность : 1 ч. 34 м.
Вид битрейта : Постоянный
Битрейт : 192 Кбит/сек
Каналы : 2 канала
Частота : 48,0 КГц
Метод сжатия : С потерями
Размер потока : 129 Мбайт (9%)







реклама партнёра


Вернуться к началу
 Профиль  
 
   Похожие торренты   Автор   Торрент   Размер 
В этой теме нет новых непрочитанных сообщений. The Last Hombres - Odd Fellows Rest [2014, Roots Rock, Blues Rock, MP3]

PriZraK

3 | 2

124.9 МБ

В этой теме нет новых непрочитанных сообщений. Братья Пилоты - На Взлёт [2006, Pop-Punk, MP3]

PriZraK

0 | 1

66.73 МБ

В этой теме нет новых непрочитанных сообщений. On The Rise-On The Rise [2003, Rock, MP3]

PriZraK

0 | 1

139.28 МБ

В этой теме нет новых непрочитанных сообщений. Волчье солнце [01-12 из 12] (Сергей Гинзбург) [2014, Приключенческая драма, SATRip]

Nickolas3435

1001 | 137

7.04 ГБ

В этой теме нет новых непрочитанных сообщений. Красивая жизнь / La belle vie (Жан Денизо / Jean Denizot) [2013г., Франция, приключенческая драма, мелодрама, DVB] Sub

Alfredovich

5 | 3

2.34 ГБ

В этой теме нет новых непрочитанных сообщений. Братство клинков / Xiu Chun Dao [Боевик, Приключения, 2014] HDTVRip, dvo

Dracon

6 | 4

1.46 ГБ

В этой теме нет новых непрочитанных сообщений. Стальное Братство [13.10] [Action, MMORPG, Sci-Fi, Фэнтези, 2016] [Лицензия]

holokofi

0 | 0

518.19 МБ


СообщениеДобавлено: 10 сен 2013, 00:16 

Не в сети
Дата регистрации:
12 фев 2013, 21:38
Спасибо: 0 / 1
Сообщения: 1
Понос


Вернуться к началу
 Профиль Отправить личное сообщение  
 
Начать новую тему Ответить на тему  [ Сообщений: 2 ] 




Для Мосгорсуда, Роскомнадзора и рекламодателей:: mosgorsud-torrent[собачка]yandex.ru