Торрент файл
скачать торрент магнет ссылка Добавлен: 29 авг 2013, 20:03
Размер: 2.63 ГБ
Сидеров: 23
Личеров: 7
Статус: (PriZraK)
Автор

СообщениеДобавлено: 29 авг 2013, 20:03 

Не в сети
Зам. Админа
Аватара пользователя
Дата регистрации:
02 дек 2010, 12:39
Спасибо: 12461 / 214
Сообщения: 27968


Год выхода: 2011
Жанр: Драма, мелодрама
Режиссер: Даниель Отой
В ролях: Даниель Отой, Кад Мерад, Сабин Азема, Жан-Пьер Дарруссен, Николя Дювошель, Астрид Берже-Фрисби, Эмили Казенав, Мари-Анн Шазель, Колин Боссо

О фильме:
18-летняя Патрисия, дочь землекопа Паскаля Аморетти, влюбляется в красавца-лётчика Жака Мазеля, но он уходит на войну, оставив девушку «в положении». Жак погибает на фронте. Когда Патрисия родила, богатые родители Жака Мазеля отказались признать ребёнка. Но у девушки есть замечательный отец, который всегда поддержит её…



Страна: Франция
Студия: Banque Populaire Images 11, Banque Postale Image 4, Canal+ [fr], Ciné Cinémas
Продолжительность: 01:44:42
Перевод: Профессиональный многоголосый (НТВ+)

Кодек: MPEG-4 AVC
Качество: HDTVRip (AVC)
Видео: 2700 Кбит/с, 1024x556, 25.000 кадр/с
Звук:
Аудио #1: Русский (AC3, 6 ch, 448 Кбит/с)
Аудио #2: Французский (AC3, 6 ch, 448 Кбит/с)

Семпл


Общее
Полное имя : Doch.zemlekopa.2011.x264.HDTVRip(AVC).MediaClub.mkv
Формат : Matroska
Версия формата : Version 2
Размер файла : 2,63 Гбайт
Продолжительность : 1 ч. 44 м.
Общий поток : 3596 Кбит/сек
Дата кодирования : UTC 2013-08-29 14:13:00
Программа кодирования : mkvmerge v5.4.0 ('Piper') built on Mar 10 2012 13:34:39
Библиотека кодирования : libebml v1.2.3 + libmatroska v1.3.0

Видео
Идентификатор : 1
Формат : AVC
Формат/Информация : Advanced Video Codec
Профиль формата : High@L4.1
Параметр CABAC формата : Да
Параметр ReFrames формата : 9 кадров
Идентификатор кодека : V_MPEG4/ISO/AVC
Продолжительность : 1 ч. 44 м.
Битрейт : 2700 Кбит/сек
Ширина : 1024 пикселя
Высота : 556 пикселей
Соотношение сторон : 1,85:1
Режим частоты кадров : Постоянный
Частота кадров : 25,000 кадров/сек
Цветовое пространство : YUV
Субдискретизация насыщенности : 4:2:0
Битовая глубина : 8 бит
Тип развёртки : Прогрессивная
Бит/(Пиксели*Кадры) : 0.190
Размер потока : 1,92 Гбайт (73%)
Библиотека кодирования : x264 core 125 r2208 d9d2288
Настройки программы : cabac=1 / ref=9 / deblock=1:-2:-2 / analyse=0x3:0x133 / me=umh / subme=10 / psy=1 / psy_rd=1.00:0.15 / mixed_ref=1 / me_range=32 / chroma_me=1 / trellis=2 / 8x8dct=1 / cqm=0 / deadzone=21,11 / fast_pskip=0 / chroma_qp_offset=-3 / threads=6 / lookahead_threads=1 / sliced_threads=0 / nr=0 / decimate=0 / interlaced=0 / bluray_compat=0 / constrained_intra=0 / bframes=8 / b_pyramid=2 / b_adapt=2 / b_bias=0 / direct=3 / weightb=1 / open_gop=0 / weightp=2 / keyint=250 / keyint_min=25 / scenecut=40 / intra_refresh=0 / rc=2pass / mbtree=0 / bitrate=2700 / ratetol=1.0 / qcomp=0.60 / qpmin=0 / qpmax=69 / qpstep=4 / cplxblur=20.0 / qblur=0.5 / ip_ratio=1.40 / pb_ratio=1.30 / aq=1:0.80
Default : Да
Forced : Нет

Аудио #1
Идентификатор : 2
Формат : AC-3
Формат/Информация : Audio Coding 3
Расширение режима : CM (complete main)
Параметр Endianness формата : Big
Идентификатор кодека : A_AC3
Продолжительность : 1 ч. 44 м.
Вид битрейта : Постоянный
Битрейт : 448 Кбит/сек
Каналы : 6 каналов
Расположение каналов : Front: L C R, Side: L R, LFE
Частота : 48,0 КГц
Битовая глубина : 16 бит
Метод сжатия : С потерями
Размер потока : 336 Мбайт (12%)
Язык : Russian
Default : Да
Forced : Нет

Аудио #2
Идентификатор : 3
Формат : AC-3
Формат/Информация : Audio Coding 3
Расширение режима : CM (complete main)
Параметр Endianness формата : Big
Идентификатор кодека : A_AC3
Продолжительность : 1 ч. 44 м.
Вид битрейта : Постоянный
Битрейт : 448 Кбит/сек
Каналы : 6 каналов
Расположение каналов : Front: L C R, Side: L R, LFE
Частота : 48,0 КГц
Битовая глубина : 16 бит
Метод сжатия : С потерями
Задержка видео : 24 мс.
Размер потока : 336 Мбайт (12%)
Язык : French
Default : Нет
Forced : Нет


Релиз от:




реклама партнёра


Вернуться к началу
 Профиль  
 
   Похожие торренты   Автор   Торрент   Размер 
В этой теме нет новых непрочитанных сообщений. Блудная дочь / La fille prodigue (Жак Дуайон / Jacques Doillon) [1981г., Франция, драма, DVB] Sub

Alfredovich

23 | 2

2.04 ГБ

В этой теме нет новых непрочитанных сообщений. Дочь / The Daughter [драма, 2015] WEB-DLRip, Mvo

salma3

701 | 41

1.37 ГБ

В этой теме нет новых непрочитанных сообщений. Дочь / The Daughter [драма, 2015] WEB-DL 720p, Mvo

salma3

87 | 42

3 ГБ

В этой теме нет новых непрочитанных сообщений. Дочь / Daughter (Ку Хе Сон / Ku Hye-sun) [2014г., Южная Корея, драма, HDRip-AVC] DVO

Alfredovich

4 | 0

1.84 ГБ

В этой теме нет новых непрочитанных сообщений. Донато и дочь / Donato and Daughter [боевик, драма, криминал, 1993] DVDRip, Avo

salma3

9 | 2

1.35 ГБ

В этой теме нет новых непрочитанных сообщений. Wolf Daughter / Дочь Волка (Taboo Heat) [2015., WEBRip]

max77777

0 | 0

1.26 ГБ

В этой теме нет новых непрочитанных сообщений. Первая дочь / В погоне за свободой / Chasing Liberty / First Daughter [Комедия, 2004] DVD5, Mvo+Sub

salma3

2 | 3

4.29 ГБ


Начать новую тему Ответить на тему  [ 1 сообщение ] 




Для Мосгорсуда, Роскомнадзора и рекламодателей:: mosgorsud-torrent[собачка]yandex.ru