Торрент файл
скачать торрент магнет ссылка Добавлен: 29 авг 2013, 12:35
Размер: 1.36 ГБ
Сидеров: 10
Личеров: 3
Статус: (salma3)
Автор

СообщениеДобавлено: 29 авг 2013, 12:35 

Не в сети
Супермодератор
Аватара пользователя
Дата регистрации:
15 фев 2012, 16:44
Возраст: 27
Спасибо: 5121 / 2089
Сообщения: 17296

Глаза аллигатора / Alligator Eyes

Год выхода: 1990
Жанр: Триллер, мелодрама
Режиссер: Джон Фельдман

В ролях: Аннабелль Ларсен, Роджер Каблер, Мэри МакЛэйн, Аллен МакКалло, Джон МакКей, Джон Патрик Райс, Алан Сполдинг

О фильме:
Трое молодых людей решают уехать подальше от города, и подальше от увеселительных заведений. Они едут на юг. По дороге им встречается красивая, таинственная молодая женщина, которая заинтересовывает их своим странным и тревожным прошлым. Все трое очарованы ей, но ей можно доверять?




Страна: США
Продолжительность: 01:36:23
Перевод: Профессиональный [многоголосый]

Файл
Качество: DVDRip
Формат файла: AVI
Видео кодек: XviD
Аудио кодек: AC3
Видео: 704x528 (1.33:1), 23.976 fps, XviD ~1788 kbps avg, 0.20 bit/pixel
Аудио: 48 kHz, AC3 Dolby Digital, 2/0 (L,R) ch, ~224.00 kbps avg



Общее
Полное имя : D:1АААГлаза аллигатора.avi
Формат : AVI
Формат/Информация : Audio Video Interleave
Размер файла : 1,36 Гбайт
Продолжительность : 1 ч. 36 м.
Общий поток : 2022 Кбит/сек
Программа кодирования : VirtualDubMod 1.5.10.3 | http://www.virtualdub-fr.org || (build 2550/release)
Библиотека кодирования : VirtualDubMod build 2550/release

Видео
Идентификатор : 0
Формат : MPEG-4 Visual
Профиль формата : Advanced Simple@L5
Параметр BVOP формата : 2
Параметр QPel формата : Нет
Параметр GMC формата : Без точки перехода
Параметр матрицы формата : Default (MPEG)
Режим смешивания : Сжатый битовый поток
Идентификатор кодека : XVID
Идентификатор кодека/Подсказка : XviD
Продолжительность : 1 ч. 36 м.
Битрейт : 1789 Кбит/сек
Ширина : 704 пикселя
Высота : 528 пикселей
Соотношение сторон : 4:3
Частота кадров : 23,976 кадра/сек
Цветовое пространство : YUV
Субдискретизация насыщенности : 4:2:0
Битовая глубина : 8 бит
Тип развёртки : Прогрессивная
Метод сжатия : С потерями
Бит/(Пиксели*Кадры) : 0.201
Размер потока : 1,20 Гбайт (88%)
Библиотека кодирования : XviD 1.2.1 (UTC 2008-12-04)

Аудио
Идентификатор : 1
Формат : AC-3
Формат/Информация : Audio Coding 3
Расширение режима : CM (complete main)
Параметр Endianness формата : Big
Идентификатор кодека : 2000
Продолжительность : 1 ч. 36 м.
Вид битрейта : Постоянный
Битрейт : 224 Кбит/сек
Каналы : 2 канала
Расположение каналов : Front: L R
Частота : 48,0 КГц
Битовая глубина : 16 бит
Метод сжатия : С потерями
Размер потока : 154 Мбайт (11%)
Выравнивание : Разделение по промежуткам
Продолжительность промежутка : 42 мс. (1,00 видеокадр)
Время предзагрузки промежутка : 500 мс.


Релиз группа:Автор рипа:




реклама партнёра


Вернуться к началу
 Профиль Отправить личное сообщение  
 
   Похожие торренты   Автор   Торрент   Размер 
В этой теме нет новых непрочитанных сообщений. Ночное наблюдение / Ночная стража / Ночные глаза / Night Eyes [Триллер, драма, 1990] DVDRip, Dvo [НТВ][

salma3

86 | 13

747.38 МБ

В этой теме нет новых непрочитанных сообщений. Глаза ангела / Angel Eyes [Триллер, Мелодрама, 2001] DVDRip, Mvo

salma3

0 | 2

1.37 ГБ

В этой теме нет новых непрочитанных сообщений. Глаза ангела / Angel Eyes [Мелодрама, триллер, драма, 2001] DVDRip-AVC, Mvo+Dvo

salma3

183 | 9

1.86 ГБ

В этой теме нет новых непрочитанных сообщений. Глаза Токио / Tokyo Eyes [Триллер, комедия, 1998] DVDRip, Dvo

salma3

9 | 4

1.46 ГБ

В этой теме нет новых непрочитанных сообщений. Глаза звезды / Звездные глаза / Starry Eyes [ужасы, 2014] WEB-DLRip, dvo

Dracon

249 | 12

1.4 ГБ

В этой теме нет новых непрочитанных сообщений. Глаза звезды / Звездные глаза / Starry Eyes [ужасы, 2014] WEB-DL 720p, dvo

Dracon

80 | 4

2.9 ГБ

В этой теме нет новых непрочитанных сообщений. Ночные глаза 4 / Night Eyes Four: Fatal Passion [триллер, драма, 1996] DVDRip, Avo

salma3

2 | 3

1.22 ГБ


Начать новую тему Ответить на тему  [ 1 сообщение ] 




Для Мосгорсуда, Роскомнадзора и рекламодателей:: mosgorsud-torrent[собачка]yandex.ru