Торрент файл
скачать торрент магнет ссылка Добавлен: 29 авг 2013, 12:35
Размер: 1.36 ГБ
Сидеров: 10
Личеров: 3
Статус: (salma3)
Автор

СообщениеДобавлено: 29 авг 2013, 12:35 

Не в сети
Супермодератор
Аватара пользователя
Дата регистрации:
15 фев 2012, 16:44
Возраст: 28
Спасибо: 6816 / 2147
Сообщения: 48737

Глаза аллигатора / Alligator Eyes

Год выхода: 1990
Жанр: Триллер, мелодрама
Режиссер: Джон Фельдман

В ролях: Аннабелль Ларсен, Роджер Каблер, Мэри МакЛэйн, Аллен МакКалло, Джон МакКей, Джон Патрик Райс, Алан Сполдинг

О фильме:
Трое молодых людей решают уехать подальше от города, и подальше от увеселительных заведений. Они едут на юг. По дороге им встречается красивая, таинственная молодая женщина, которая заинтересовывает их своим странным и тревожным прошлым. Все трое очарованы ей, но ей можно доверять?




Страна: США
Продолжительность: 01:36:23
Перевод: Профессиональный [многоголосый]

Файл
Качество: DVDRip
Формат файла: AVI
Видео кодек: XviD
Аудио кодек: AC3
Видео: 704x528 (1.33:1), 23.976 fps, XviD ~1788 kbps avg, 0.20 bit/pixel
Аудио: 48 kHz, AC3 Dolby Digital, 2/0 (L,R) ch, ~224.00 kbps avg



Общее
Полное имя : D:1АААГлаза аллигатора.avi
Формат : AVI
Формат/Информация : Audio Video Interleave
Размер файла : 1,36 Гбайт
Продолжительность : 1 ч. 36 м.
Общий поток : 2022 Кбит/сек
Программа кодирования : VirtualDubMod 1.5.10.3 | http://www.virtualdub-fr.org || (build 2550/release)
Библиотека кодирования : VirtualDubMod build 2550/release

Видео
Идентификатор : 0
Формат : MPEG-4 Visual
Профиль формата : Advanced Simple@L5
Параметр BVOP формата : 2
Параметр QPel формата : Нет
Параметр GMC формата : Без точки перехода
Параметр матрицы формата : Default (MPEG)
Режим смешивания : Сжатый битовый поток
Идентификатор кодека : XVID
Идентификатор кодека/Подсказка : XviD
Продолжительность : 1 ч. 36 м.
Битрейт : 1789 Кбит/сек
Ширина : 704 пикселя
Высота : 528 пикселей
Соотношение сторон : 4:3
Частота кадров : 23,976 кадра/сек
Цветовое пространство : YUV
Субдискретизация насыщенности : 4:2:0
Битовая глубина : 8 бит
Тип развёртки : Прогрессивная
Метод сжатия : С потерями
Бит/(Пиксели*Кадры) : 0.201
Размер потока : 1,20 Гбайт (88%)
Библиотека кодирования : XviD 1.2.1 (UTC 2008-12-04)

Аудио
Идентификатор : 1
Формат : AC-3
Формат/Информация : Audio Coding 3
Расширение режима : CM (complete main)
Параметр Endianness формата : Big
Идентификатор кодека : 2000
Продолжительность : 1 ч. 36 м.
Вид битрейта : Постоянный
Битрейт : 224 Кбит/сек
Каналы : 2 канала
Расположение каналов : Front: L R
Частота : 48,0 КГц
Битовая глубина : 16 бит
Метод сжатия : С потерями
Размер потока : 154 Мбайт (11%)
Выравнивание : Разделение по промежуткам
Продолжительность промежутка : 42 мс. (1,00 видеокадр)
Время предзагрузки промежутка : 500 мс.


Релиз группа:Автор рипа:




реклама партнёра


Вернуться к началу
 Профиль Отправить личное сообщение  
 
   Похожие торренты   Автор   Торрент   Размер 
В этой теме нет новых непрочитанных сообщений. Глаза / The Eyes [триллер, драма, криминал, детектив, 2017] WEBRip, Dvo

salma3

50 | 7

1.38 ГБ

В этой теме нет новых непрочитанных сообщений. Глаза змеи / Snake Eyes [триллер, криминал, детектив, 1998] HDRip-AVC, Dub

salma3

47 | 15

1.46 ГБ

В этой теме нет новых непрочитанных сообщений. Глаза моей матери / The Eyes of My Mother [ужасы, триллер, драма, 2016] WEB-DLRip, Avo

salma3

220 | 35

1.35 ГБ

В этой теме нет новых непрочитанных сообщений. Глаза змеи / Snake Eyes [Триллер, криминал, детектив, 1998] BDRip 720p, dub+mvo+avo

salma3

71 | 5

7.88 ГБ

В этой теме нет новых непрочитанных сообщений. У холмов есть глаза / The Hills Have Eyes [Ужасы, триллер, 2006] BDRip-AVC, Dub [Unrated]

salma3

75 | 14

745.06 МБ

В этой теме нет новых непрочитанных сообщений. У холмов есть глаза 2 / The Hills Have Eyes II [Ужасы, триллер, 2007] BDRemux 1080p, Dub [Unrated]

salma3

8 | 4

17.93 ГБ

В этой теме нет новых непрочитанных сообщений. Глаза дракона / Dragon Eyes [боевик, триллер, драма, криминал, 2012] BDRemux 1080p, Mvo

salma3

9 | 3

18.11 ГБ


Начать новую тему Ответить на тему  [ 1 сообщение ] 




Для Мосгорсуда, Роскомнадзора и рекламодателей:: mosgorsud-torrent[собачка]yandex.ru