Торрент файл
скачать торрент магнет ссылка Добавлен: 28 авг 2013, 19:56
Размер: 1.37 ГБ
Сидеров: 6
Личеров: 3
Статус: (salma3)
Автор

СообщениеДобавлено: 28 авг 2013, 19:56 

Не в сети
Зам. Админа
Аватара пользователя
Дата регистрации:
02 дек 2010, 12:39
Спасибо: 12461 / 214
Сообщения: 27968


Год выпуска: 2012
Страна: Нидерланды
Жанр: семейный
Продолжительность: 01:22:06

Перевод: Профессиональный (двухголосый закадровый) студия Elrom
Cубтитры: нет
Оригинальная аудиодорожка: нидерландский

Режиссер: Миша Кэмп / Mischa Kamp

В ролях: Фаас Вэйн /Faas Wijn/, Ерун Шпиценбергер /Jeroen Spitzenberger/, Рифка Лодейзен /Rifka Lodeizen/, Анна Дрейвер /Anna Drijver/, Аннет Мальэрб /Annet Malherbe/, Карло Бошхард /Carlo Boszhard/, Люк Питерс /Loek Peters/

Описание: Семейный фильм, рассказывающий невероятную историю о почти десятилетнем Тони, чей папа делает головокружительную карьеру от крановщика до министра транспорта. Из-за этого между его, как казалось мальчику, созданными друг для друга родителями все чаще начинают возникать разногласия, семья оказывается на грани развода, и Тони готов сделать все, чтобы его папа и мама снова были вместе. Даже призвать на помощь Королеву.

IMDB

Производство: Lemming Film, Ma.Ja.De Filmproduktion (Нидерланды)

Sample

Качество видео: DVDRip
Формат видео: AVI

Видео: Xvid 720x384 25.00fps 1761kbps
Аудио: MPEG Audio Layer 3 48000Hz stereo 160kbps [Рус]
Аудио 2: Dolby AC3 48000Hz 6ch 448kbps [Dut]
MediaInfo
General
Complete name : Q:\Tony.10.2012.PAL.DVDR.Dutch.DD5.1.English.Sub\Toni.10.2012.DVDrip.XviD.rus-dut_25KADR.avi
Format : AVI
Format/Info : Audio Video Interleave
File size : 1.37 GiB
Duration : 1h 22mn
Overall bit rate : 2 383 Kbps
Movie name : Toni.10.2012
Original source form/Distributed : DVD5
Genre : Family
Copyright : 25KADR
Comment : DVO (Elrom studio)

Video
ID : 0
Format : MPEG-4 Visual
Format profile : Advanced Simple@L5
Format settings, BVOP : Yes
Format settings, QPel : No
Format settings, GMC : No warppoints
Format settings, Matrix : Default (MPEG)
Codec ID : XVID
Codec ID/Hint : XviD
Duration : 1h 22mn
Bit rate : 1 761 Kbps
Width : 720 pixels
Height : 384 pixels
Display aspect ratio : 1.875
Frame rate : 25.000 fps
Color space : YUV
Chroma subsampling : 4:2:0
Bit depth : 8 bits
Scan type : Progressive
Bits/(Pixel*Frame) : 0.255
Stream size : 1.01 GiB (74%)
Writing library : XviD 64

Audio #1
ID : 1
Format : MPEG Audio
Format version : Version 1
Format profile : Layer 3
Codec ID : 55
Codec ID/Hint : MP3
Duration : 1h 22mn
Bit rate mode : Constant
Bit rate : 160 Kbps
Channel(s) : 2 channels
Sampling rate : 48.0 KHz
Stream size : 94.0 MiB (7%)
Alignment : Aligned on interleaves
Interleave, duration : 40 ms (1.00 video frame)
Interleave, preload duration : 504 ms
Language : Russian

Audio #2
ID : 2
Format : AC-3
Format/Info : Audio Coding 3
Mode extension : CM (complete main)
Codec ID : 2000
Duration : 1h 22mn
Bit rate mode : Constant
Bit rate : 448 Kbps
Channel(s) : 6 channels
Channel positions : Front: L C R, Side: L R, LFE
Sampling rate : 48.0 KHz
Bit depth : 16 bits
Stream size : 263 MiB (19%)
Alignment : Split accross interleaves
Interleave, duration : 40 ms (1.00 video frame)
Interleave, preload duration : 500 ms
Language : Dutch




реклама партнёра


Вернуться к началу
 Профиль  
 
   Похожие торренты   Автор   Торрент   Размер 
В этой теме нет новых непрочитанных сообщений. Любовники из снов / Meng zhong ren (Тони Ау Тин Пин / Tony Au Ting Ping) [1986г., мелодрама, мистика, DVDRip] VO

Alfredovich

3 | 2

1.37 ГБ

В этой теме нет новых непрочитанных сообщений. Женщины и мужчины: Истории соблазнений / Women and Men: Stories of Seduction (Фредерик Рафаэл, Тони Ричардсон, Кен Рассел / Frederic Raphael, Tony Richardson, Ken Russell) [1990г., драма, мелодрама, DVDRip] MVO

Alfredovich

42 | 11

1.45 ГБ

В этой теме нет новых непрочитанных сообщений. Мемуары Ясмин / Yasmine Les Trottoirs de l'Est (Tony del Duomo / Marc Dorcel) (Yasmine, Kathy Anderson, Horst Baron, Tony Carrera, Sandra de Marco, Laura Lion, Lea Magic) [2007 г., Feature, Couples, Vignettes, PornStars, DVDRip]

Dievas2

64 | 8

699.37 МБ

В этой теме нет новых непрочитанных сообщений. Tony Borg - Tony Borg [1992, Melodic Rock,Instrumental, MP3]

PriZraK

0 | 1

111.13 МБ

В этой теме нет новых непрочитанных сообщений. Скуби-Ду и KISS: Тайна рок-н-ролла / Scooby-Doo! And Kiss: Rock and Roll Mystery (Спайк Брандт, Тони Червоне) [Мультфильм, семейный, 2015] DVDRip, dub [Чистый звук]

Dracon

7 | 0

1.37 ГБ

В этой теме нет новых непрочитанных сообщений. Dario Mollo / Tony Martin - The Third Cage [2012, Melodic,Hard Rock, MP3]

PriZraK

0 | 1

114 МБ

В этой теме нет новых непрочитанных сообщений. Tony Hawk's Pro Skater HD [Arcade, Sport (Extreme sports), 3D, 3rd Person, 2012] [RePack]

Dracon

162 | 5

919.21 МБ


Начать новую тему Ответить на тему  [ 1 сообщение ] 




Для Мосгорсуда, Роскомнадзора и рекламодателей:: mosgorsud-torrent[собачка]yandex.ru