Торрент файл
скачать торрент магнет ссылка Добавлен: 28 авг 2013, 09:57
Размер: 745.45 МБ
Сидеров: 36
Личеров: 4
Статус: (PriZraK)
Автор

СообщениеДобавлено: 28 авг 2013, 09:57 

Не в сети
Зам. Админа
Аватара пользователя
Дата регистрации:
02 дек 2010, 12:39
Спасибо: 12460 / 214
Сообщения: 27968

Год выпуска: 2013
Страна: Новая Зеландия
Киностудии: Factory Fiction

Жанр: мюзикл, драма
Продолжительность: 01:36:31

Перевод: Субтитры
Оригинальная аудиодорожка: английский
Субтитры: русский

Режиссер: Тим ван Даммен / Tim van Dammen

В ролях: Сара Валентайн, Камерон Родс, Сара Хуболт, Даллас Барнетт, Антон Теннет, Дерия Парлак, Дэн Вейнт, Рики МакЛеннан

Описание: Каждое поколение переосмысливает историю Ромео и Джульетты по-своему, чтобы она находила отклик в сердцах современного поколения, с её своеобразной эмоциональностью, опытом и взглядами. Эта история для поколения YouTube. Фильм, в котором обыгрываются вкусы современной молодёжи, привыкшей принимать гламур с грязью, комическое с трагическим, красивое с причудливым, а продажное — с возвышенным.





Исходник: DVD9 R5
Качество: DVDRip
Формат: AVI

Видео: 720x304 (2.35:1), 25.000 fps, XviD MPEG-4 ~942 kbps avg, 0.172 bit/pixel
Аудио: 48 kHz, Dolby МР3, 2 ch, 128 kbps, английский
Формат субтитров: SoftSub (srt)
Примечание: Не стали наши лицензионщики переводить этот фильм и наверное правильно сделали. Это мюзикл и этим всё сказано.

Раздача от:
Общее
Полное имя : Romeo.i.Djulyetta.2013.S.DVDRip.745MB_[Youtracker]_by_avproh.avi
Формат : AVI
Формат/Информация : Audio Video Interleave
Размер файла : 745 Мбайт
Продолжительность : 1 ч. 36 м.
Общий поток : 1080 Кбит/сек
Программа кодирования : VirtualDubModRus 1.5.10.2 (build 2542/release)
Библиотека кодирования : VirtualDubMod build 2542/release

Видео
Идентификатор : 0
Формат : MPEG-4 Visual
Профиль формата : Advanced Simple@L5
Параметр BVOP формата : 1
Параметр QPel формата : Нет
Параметр GMC формата : Без точки перехода
Параметр матрицы формата : Выборочная
Идентификатор кодека : XVID
Идентификатор кодека/Подсказка : XviD
Продолжительность : 1 ч. 36 м.
Битрейт : 942 Кбит/сек
Ширина : 720 пикселей
Высота : 304 пикселя
Соотношение сторон : 2,35:1
Частота кадров : 25,000 кадров/сек
Цветовое пространство : YUV
Субдискретизация насыщенности : 4:2:0
Битовая глубина : 8 бит
Тип развёртки : Прогрессивная
Метод сжатия : С потерями
Бит/(Пиксели*Кадры) : 0.172
Размер потока : 650 Мбайт (87%)
Библиотека кодирования : XviD 65

Аудио
Идентификатор : 1
Формат : MPEG Audio
Версия формата : Version 1
Профиль формата : Layer 3
Режим : Joint stereo
Расширение режима : MS Stereo
Идентификатор кодека : 55
Идентификатор кодека/Подсказка : MP3
Продолжительность : 1 ч. 36 м.
Вид битрейта : Постоянный
Битрейт : 128 Кбит/сек
Каналы : 2 канала
Частота : 48,0 КГц
Метод сжатия : С потерями
Размер потока : 88,4 Мбайт (12%)
Выравнивание : Соединение по промежуткам
Продолжительность промежутка : 40 мс. (1,00 видеокадр)
Время предзагрузки промежутка : 504 мс.






реклама партнёра


Вернуться к началу
 Профиль  
 
   Похожие торренты   Автор   Торрент   Размер 
В этой теме нет новых непрочитанных сообщений. Ромео и Джульетта / Romeo and Juliet: A Love Song [мюзикл, драма, 2013] DVD5, Dub

Dracon

9 | 5

4.37 ГБ

В этой теме нет новых непрочитанных сообщений. Ромео и Джульетта / Romeo and Juliet [драма, мелодрама, 2013] WEB-DLRip, Dub [iTunes]

Dracon

63 | 2

1.46 ГБ

В этой теме нет новых непрочитанных сообщений. Ромео и Джульетта / Romeo and Juliet [драма, мелодрама, 2013] WEB-DL 720p, Dub [iTunes]

Dracon

6 | 2

3.46 ГБ

В этой теме нет новых непрочитанных сообщений. Ромео и Джульетта / Romeo and Juliet [драма, мелодрама, 2013] BDRip 1080p, Dub [Лицензия]

Dracon

62 | 25

9.23 ГБ

В этой теме нет новых непрочитанных сообщений. Ромео и Джульетта / Romeo and Juliet [драма, мелодрама, 2013] BDRip 720p, Dub [Лицензия]

Dracon

75 | 68

5.03 ГБ

В этой теме нет новых непрочитанных сообщений. Ромео и Джульетта / Romeo and Juliet [драма, мелодрама, 2013] BDRemux 1080i, Dub [Лицензия]

Dracon

35 | 6

11.2 ГБ

В этой теме нет новых непрочитанных сообщений. Виски Ромео Зулу / Whisky Romeo Zulu (Энрике Пиньейро / Enrique Pineyro) [2004г., Аргентина, триллер, драма, DVDRip] Sub

Alfredovich

11 | 6

1.36 ГБ


Начать новую тему Ответить на тему  [ 1 сообщение ] 




Для Мосгорсуда, Роскомнадзора и рекламодателей:: mosgorsud-torrent[собачка]yandex.ru