Торрент файл
скачать торрент магнет ссылка Добавлен: 27 авг 2013, 09:43
Размер: 1.42 ГБ
Сидеров: 20
Личеров: 9
Статус: (PriZraK)
Автор

СообщениеДобавлено: 27 авг 2013, 09:43 

Не в сети
Зам. Админа
Аватара пользователя
Дата регистрации:
02 дек 2010, 12:39
Спасибо: 12623 / 214
Сообщения: 28012


Год выхода: 2012
Жанр: Комедия
Режиссер: Вилиам Крепен
В ролях: Анни Корди, Пьер Кассиньяр, Рюфюс, Пегги Лерай, Бартелеми Гиймар, Катя Ченко, Анна Гейлор, Клодин Акс, Жюльен Кафаро, Николас Габион

О фильме:
Франсуа без работы уже два года, его брак распался, после развода он вынужден переехать к своей матери в маленький провинциальный городок, где прошло его детство. Стремясь скрыть свое бедственное положение, Франсуа прикрывается надуманными проектами по развитию бизнеса, но мать подозревает, что сын утаивает правду.



Страна: Франция
Студия: WIP Studio
Продолжительность: 01:24:59
Перевод: Профессиональный многоголосый

Кодек: MPEG-4 AVC
Качество: HDTVRip (AVC)
Видео: 2000 Кбит/с, 1024x576, 25.000 кадр/с
Звук:
Аудио #1: Русский (AC3, 2 ch, 192 Кбит/с)
Аудио #2: Французский (AC3, 2 ch, 192 Кбит/с)

Семпл


Общее
Полное имя : Ja.vozvrawajus.zhit.k.mame.2012.x264.HDTVRip(AVC).MediaClub.mkv
Формат : Matroska
Версия формата : Version 2
Размер файла : 1,42 Гбайт
Продолжительность : 1 ч. 24 м.
Общий поток : 2386 Кбит/сек
Дата кодирования : UTC 2013-08-26 18:50:30
Программа кодирования : mkvmerge v5.4.0 ('Piper') built on Mar 10 2012 13:34:39
Библиотека кодирования : libebml v1.2.3 + libmatroska v1.3.0

Видео
Идентификатор : 1
Формат : AVC
Формат/Информация : Advanced Video Codec
Профиль формата : High@L4.1
Параметр CABAC формата : Да
Параметр ReFrames формата : 9 кадров
Идентификатор кодека : V_MPEG4/ISO/AVC
Продолжительность : 1 ч. 24 м.
Битрейт : 2000 Кбит/сек
Ширина : 1024 пикселя
Высота : 576 пикселей
Соотношение сторон : 16:9
Режим частоты кадров : Постоянный
Частота кадров : 25,000 кадров/сек
Цветовое пространство : YUV
Субдискретизация насыщенности : 4:2:0
Битовая глубина : 8 бит
Тип развёртки : Прогрессивная
Бит/(Пиксели*Кадры) : 0.136
Размер потока : 1,16 Гбайт (82%)
Библиотека кодирования : x264 core 125 r2208 d9d2288
Настройки программы : cabac=1 / ref=9 / deblock=1:-2:-2 / analyse=0x3:0x133 / me=umh / subme=10 / psy=1 / psy_rd=1.00:0.15 / mixed_ref=1 / me_range=32 / chroma_me=1 / trellis=2 / 8x8dct=1 / cqm=0 / deadzone=21,11 / fast_pskip=0 / chroma_qp_offset=-3 / threads=6 / lookahead_threads=1 / sliced_threads=0 / nr=0 / decimate=0 / interlaced=0 / bluray_compat=0 / constrained_intra=0 / bframes=8 / b_pyramid=2 / b_adapt=2 / b_bias=0 / direct=3 / weightb=1 / open_gop=0 / weightp=2 / keyint=250 / keyint_min=25 / scenecut=40 / intra_refresh=0 / rc=2pass / mbtree=0 / bitrate=2000 / ratetol=1.0 / qcomp=0.60 / qpmin=0 / qpmax=69 / qpstep=4 / cplxblur=20.0 / qblur=0.5 / ip_ratio=1.40 / pb_ratio=1.30 / aq=1:0.80
Default : Да
Forced : Нет

Аудио #1
Идентификатор : 2
Формат : AC-3
Формат/Информация : Audio Coding 3
Расширение режима : CM (complete main)
Параметр Endianness формата : Big
Идентификатор кодека : A_AC3
Продолжительность : 1 ч. 24 м.
Вид битрейта : Постоянный
Битрейт : 192 Кбит/сек
Каналы : 2 канала
Расположение каналов : Front: L R
Частота : 48,0 КГц
Битовая глубина : 16 бит
Метод сжатия : С потерями
Размер потока : 117 Мбайт (8%)
Язык : Russian
Default : Да
Forced : Нет

Аудио #2
Идентификатор : 3
Формат : AC-3
Формат/Информация : Audio Coding 3
Расширение режима : CM (complete main)
Параметр Endianness формата : Big
Идентификатор кодека : A_AC3
Продолжительность : 1 ч. 24 м.
Вид битрейта : Постоянный
Битрейт : 192 Кбит/сек
Каналы : 2 канала
Расположение каналов : Front: L R
Частота : 48,0 КГц
Битовая глубина : 16 бит
Метод сжатия : С потерями
Размер потока : 117 Мбайт (8%)
Язык : French
Default : Нет
Forced : Нет


Релиз от:




реклама партнёра


Вернуться к началу
 Профиль  
 
   Похожие торренты   Автор   Торрент   Размер 
В этой теме нет новых непрочитанных сообщений. Не говори маме, что няня умерла / Don't Tell Mom the Babysitter's Dead [комедия, семейный, 1991] DVD5, Dvo

salma3

22 | 22

4.03 ГБ

В этой теме нет новых непрочитанных сообщений. Не говори маме, что няня умерла / Don't Tell Mom the Babysitter's Dead [комедия, семейный, 1991] DVDRip, Dvo

salma3

43 | 2

1.46 ГБ

В этой теме нет новых непрочитанных сообщений. Научи меня жить [01-02 из 12] (Психологический детектив, 2016) HDTVRip от GeneralFilm

marya111

893 | 312

2.8 ГБ

В этой теме нет новых непрочитанных сообщений. Свадьба моей любимой / Mere Yaar Ki Shaadi Hai [Мюзикл, драма, мелодрама, комедия, 2002] HDRip, Mvo

salma3

22 | 3

1.46 ГБ

В этой теме нет новых непрочитанных сообщений. Не оглядывайся / Ne Te Retourne Pas / Don't Look Back [Мистика, 2009] BDRip 720p, Dub

salma3

96 | 28

4.71 ГБ

В этой теме нет новых непрочитанных сообщений. Свадьба моей любимой / Mere Yaar Ki Shaadi Hai [Мюзикл, драма, мелодрама, комедия, 2002] BDRip 1080p, Mvo

salma3

4 | 3

13.99 ГБ

В этой теме нет новых непрочитанных сообщений. Ой, мамочки / Telle mère, telle fille [Комедия, 2017] WEB-DLRip, Mvo [iTunes]

salma3

317 | 42

1.46 ГБ


Начать новую тему Ответить на тему  [ 1 сообщение ] 




Для Мосгорсуда, Роскомнадзора и рекламодателей:: mosgorsud-torrent[собачка]yandex.ru