Торрент файл
скачать торрент магнет ссылка Добавлен: 25 авг 2013, 22:37
Размер: 1.45 ГБ
Сидеров: 51
Личеров: 5
Статус: (salma3)
Автор

СообщениеДобавлено: 25 авг 2013, 22:37 

Не в сети
Супермодератор
Аватара пользователя
Дата регистрации:
15 фев 2012, 16:44
Возраст: 27
Спасибо: 5121 / 2089
Сообщения: 17342

Пьяный тай-чи / Siu taai gik

Год выхода: 1984
Жанр: боевые искусства
Режиссер: Юэнь Ву-Пин

В ролях: Донни Ен, Чеунг-Ян Юэнь, Лидия Сум, Шун-Йи Юэнь, Мэнди Чан, Ят Чор Юэнь, Дон Вонг, Чун Кай Чунг, Чанг Хсян, Вонг Кин-Ми

О фильме:
Действие разворачивается в начале века, и главный герой — младший сын в семье местного «кулака». Папаша обожает своего младшенького, одевая его и наставляя на путь истинный «по полной программе», в то же время заставляя старшего вкалывать с утра до ночи на благо брата. Тем не менее, братья любят друг друга и постоянно вместе. Все меняется, когда вдвоем они срывают план сыночка местного богатея поиздеваться над ними, обратив козни недоросля против него самого.



Страна: Китай, Гонконг
Продолжительность: 01:26:38
Перевод: Любительский [одноголосый закадровый]

Файл
Качество: DVDRip
Формат файла: AVI
Видео кодек: XviD
Аудио кодек: AC3
Видео: 720x368. fps: 25,00. Битрейт: 2198 Kbps. 0,34 b/px.
Звук: AC3. CH: 2. 48000 Hz. Битрейт: 192 Kbps. [одноголосый]



Формат : AVI
Формат/Информация : Audio Video Interleave
Размер файла : 1,45 Гбайт
Продолжительность : 1 ч. 26 м.
Общий поток : 2400 Кбит/сек
Программа кодирования : VirtualDubMod 1.5.10.2 (build 2540/release)
Библиотека кодирования : VirtualDubMod build 2540/release

Видео
Идентификатор : 0
Формат : MPEG-4 Visual
Профиль формата : Advanced Simple@L5
Параметр BVOP формата : 1
Параметр QPel формата : Нет
Параметр GMC формата : Без точки перехода
Параметр матрицы формата : Default (H.263)
Идентификатор кодека : XVID
Идентификатор кодека/Подсказка : XviD
Продолжительность : 1 ч. 26 м.
Битрейт : 2198 Кбит/сек
Ширина : 720 пикселей
Высота : 368 пикселей
Соотношение сторон : 1,957
Частота кадров : 25,000 кадров/сек
Цветовое пространство : YUV
Субдискретизация насыщенности : 4:2:0
Битовая глубина : 8 бит
Тип развёртки : Прогрессивная
Метод сжатия : С потерями
Бит/(Пиксели*Кадры) : 0.332
Размер потока : 1,33 Гбайт (92%)
Библиотека кодирования : XviD 1.2.0.dev47 (UTC 2006-11-01)

Аудио
Идентификатор : 1
Формат : AC-3
Формат/Информация : Audio Coding 3
Расширение режима : CM (complete main)
Параметр Endianness формата : Big
Идентификатор кодека : 2000
Продолжительность : 1 ч. 26 м.
Вид битрейта : Постоянный
Битрейт : 192 Кбит/сек
Каналы : 2 канала
Расположение каналов : Front: L R
Частота : 48,0 КГц
Битовая глубина : 16 бит
Метод сжатия : С потерями
Размер потока : 119 Мбайт (8%)
Выравнивание : Разделение по промежуткам
Продолжительность промежутка : 40 мс. (1,00 видеокадр)
Время предзагрузки промежутка : 500 мс.




реклама партнёра


Вернуться к началу
 Профиль Отправить личное сообщение  
 
   Похожие торренты   Автор   Торрент   Размер 
В этой теме нет новых непрочитанных сообщений. Вин Чун / Wing Chun [Боевик, боевые искусства, 1994] DVDRip-AVC, Avo

salma3

273 | 35

2.04 ГБ

В этой теме нет новых непрочитанных сообщений. Мой самурай / My Samurai [Боевик, боевые искусства, 1992] DVDRip, Avo

salma3

1 | 0

1.45 ГБ

В этой теме нет новых непрочитанных сообщений. Каратистка / K.G / Karate Girl [Боевик, Боевые Искусства, 2011] DVDRip, Avo

salma3

204 | 10

1.39 ГБ

В этой теме нет новых непрочитанных сообщений. Рандеву со смертью / Rendezvous with Death [Боевые искусства, 1980] DVDRip, Avo

salma3

18 | 6

1.46 ГБ

В этой теме нет новых непрочитанных сообщений. Охота за кристаллом / No foh wai lung [Боевик, боевые искусства, 1991] DVDRip-AVC, Mvo

salma3

22 | 5

1.98 ГБ

В этой теме нет новых непрочитанных сообщений. Рандеву со смертью / Rendezvous with Death [Боевые искусства, 1980] DVDRip, Avo

salma3

29 | 6

743.35 МБ

В этой теме нет новых непрочитанных сообщений. Кровавый спорт 3 / Bloodsport 3 [Боевик, боевые искусства, 1996] DVDRip-AVC, Dvo+Avo

salma3

58 | 16

2.17 ГБ


Начать новую тему Ответить на тему  [ 1 сообщение ] 




Для Мосгорсуда, Роскомнадзора и рекламодателей:: mosgorsud-torrent[собачка]yandex.ru