Торрент файл
скачать торрент магнет ссылка Добавлен: 25 авг 2013, 13:36
Размер: 1.47 ГБ
Сидеров: 7
Личеров: 10
Статус: (salma3)
Автор

СообщениеДобавлено: 25 авг 2013, 13:36 

Не в сети
Супермодератор
Аватара пользователя
Дата регистрации:
15 фев 2012, 16:44
Возраст: 27
Спасибо: 5139 / 2089
Сообщения: 17411

[size150]Железный телохранитель / Da dao Wang Wu[/size]

Год выхода: 1973
Жанр: боевые искусства
Режиссер: Чанг Че, Хсю Ли Пао

В ролях: Чен Куан Тай, Хуа Юех, Лили Лай, Бетти Пей Ти, Дэнни Ли, Ти Лу, Тао Чианг, Нэн Чианг, Лин Танг, Чинг По Чанг

О фильме:
Тань Сы-Тун (1865-1898) - китайский мыслитель, философ, поэт, лидер радикалов реформаторского движения Китая, добровольно принявший мученическую смерть. Фильм "Железный телохранитель" повествует о группе отважных героев во главе со знаменитым фехтовальщиком Ван У, которые предпринимают попытку спасти Тань Сы-Туна в день его казни.




Страна: Китай, Гонконг
Продолжительность: 01:34:08
Перевод: Любительский [одноголосый закадровый] [Jet]

Файл
Качество: DVDRip
Формат файла: AVI
Видео кодек: XviD
Аудио кодек: AC3
Видео: 688x288, 23.976 fps, ~2026 kbps avg, 0.43 bit/pixel
Звук: 48 kHz, AC3 Dolby Digital, 2/0 (L,R) ch, ~192 kbps

Субтитры: нет

Формат : AVI
Формат/Информация : Audio Video Interleave
Размер файла : 1,47 Гбайт
Продолжительность : 1 ч. 34 м.
Общий поток : 2228 Кбит/сек
Программа кодирования : VirtualDubMod 1.5.10.3 | http://www.virtualdub-fr.org || (build 2550/release)
Библиотека кодирования : VirtualDubMod build 2550/release

Видео
Идентификатор : 0
Формат : MPEG-4 Visual
Профиль формата : Advanced Simple@L5
Параметр BVOP формата : 2
Параметр QPel формата : Нет
Параметр GMC формата : Без точки перехода
Параметр матрицы формата : Default (MPEG)
Идентификатор кодека : XVID
Идентификатор кодека/Подсказка : XviD
Продолжительность : 1 ч. 34 м.
Битрейт : 2027 Кбит/сек
Ширина : 688 пикселей
Высота : 288 пикселей
Соотношение сторон : 2,40:1
Частота кадров : 23,976 кадра/сек
Цветовое пространство : YUV
Субдискретизация насыщенности : 4:2:0
Битовая глубина : 8 бит
Тип развёртки : Прогрессивная
Метод сжатия : С потерями
Бит/(Пиксели*Кадры) : 0.427
Размер потока : 1,33 Гбайт (91%)
Библиотека кодирования : XviD 1.2.1 (UTC 2008-12-04)

Аудио
Идентификатор : 1
Формат : AC-3
Формат/Информация : Audio Coding 3
Расширение режима : CM (complete main)
Параметр Endianness формата : Big
Идентификатор кодека : 2000
Продолжительность : 1 ч. 34 м.
Вид битрейта : Постоянный
Битрейт : 192 Кбит/сек
Каналы : 2 канала
Расположение каналов : Front: L R
Частота : 48,0 КГц
Битовая глубина : 16 бит
Метод сжатия : С потерями
Размер потока : 129 Мбайт (9%)
Выравнивание : Разделение по промежуткам
Продолжительность промежутка : 42 мс. (1,00 видеокадр)
Время предзагрузки промежутка : 500 мс.




реклама партнёра


Вернуться к началу
 Профиль Отправить личное сообщение  
 
   Похожие торренты   Автор   Торрент   Размер 
В этой теме нет новых непрочитанных сообщений. Вин Чун / Wing Chun [Боевик, боевые искусства, 1994] DVDRip-AVC, Avo

salma3

273 | 35

2.04 ГБ

В этой теме нет новых непрочитанных сообщений. Мой самурай / My Samurai [Боевик, боевые искусства, 1992] DVDRip, Avo

salma3

1 | 0

1.45 ГБ

В этой теме нет новых непрочитанных сообщений. Тайные соперники / Nan quan bei tui [Боевик, боевые искусства, 1976] DVDRip-AVC, Avo

salma3

54 | 17

1.89 ГБ

В этой теме нет новых непрочитанных сообщений. Не сдавайся / A Dangerous Place [боевик, боевые искусства, 1995] DVDRip, Avo

salma3

49 | 1

699.2 МБ

В этой теме нет новых непрочитанных сообщений. Рандеву со смертью / Rendezvous with Death [Боевые искусства, 1980] DVDRip, Avo

salma3

29 | 6

743.35 МБ

В этой теме нет новых непрочитанных сообщений. Каратистка / K.G / Karate Girl [Боевик, Боевые Искусства, 2011] DVDRip, Avo

salma3

204 | 10

1.39 ГБ

В этой теме нет новых непрочитанных сообщений. Охота за кристаллом / No foh wai lung [Боевик, боевые искусства, 1991] DVDRip-AVC, Mvo

salma3

22 | 5

1.98 ГБ


Начать новую тему Ответить на тему  [ 1 сообщение ] 




Для Мосгорсуда, Роскомнадзора и рекламодателей:: mosgorsud-torrent[собачка]yandex.ru