Торрент файл
скачать торрент магнет ссылка Добавлен: 25 авг 2013, 09:38
Размер: 3.29 ГБ
Сидеров: 6
Личеров: 3
Автор

СообщениеДобавлено: 25 авг 2013, 09:38 

Не в сети
Зам. Админа
Аватара пользователя
Дата регистрации:
02 дек 2010, 12:39
Спасибо: 12460 / 214
Сообщения: 27968


Год выхода: 2012
Жанр: Ужасы, триллер, драма, криминал
Режиссер: Кристиан Грилло
В ролях: Кристофер Манн, Лора Л. Коттрел, Эрни Хадсон, Дуг Брэдли, Том Детрик, К. Дж. Линхайн, Уоррен Хеменуэй, Кевин Феннелл., Фил И. Айкинджер

О фильме:
Восемь лет назад таинственно исчезли женщина по имени Мэгги Чанселлор и ее сын Коул. Детектива нанимает на работу муж пропавшей, желающий узнать, что же с ней случилось. Втянувшись в расследование этого странного дела, герой картины не подозревает, что Мэгги все эти годы находится в плену у сумасшедшего маньяка-фермера из американской глубинки Лукаса Уолтона, который фактически заменил Коулу отца и вводит его в тот мир, из которого не может быть выхода…



Страна: США
Студия: Potent Media, SaintSinner Entertainment
Продолжительность: 01:41:06
Перевод: Профессиональный многоголосый (НТВ+)

Кодек: MPEG-4 AVC
Качество: HDTVRip 720p
Видео: 3750 Кбит/с, 1280x720, 25.000 кадр/с
Звук:
Аудио #1: Русский (AC3, 6 ch, 448 Кбит/с)
Аудио #2: Английский (AC3, 6 ch, 448 Кбит/с)

Семпл


Общее
Полное имя : Olenja.tropa.2012.x264.HDTVRip(720p).MediaClub.mkv
Формат : Matroska
Версия формата : Version 2
Размер файла : 3,29 Гбайт
Продолжительность : 1 ч. 41 м.
Общий поток : 4666 Кбит/сек
Дата кодирования : UTC 2013-08-24 18:26:58
Программа кодирования : mkvmerge v5.4.0 ('Piper') built on Mar 10 2012 13:34:39
Библиотека кодирования : libebml v1.2.3 + libmatroska v1.3.0

Видео
Идентификатор : 1
Формат : AVC
Формат/Информация : Advanced Video Codec
Профиль формата : High@L4.1
Параметр CABAC формата : Да
Параметр ReFrames формата : 9 кадров
Идентификатор кодека : V_MPEG4/ISO/AVC
Продолжительность : 1 ч. 41 м.
Битрейт : 3750 Кбит/сек
Ширина : 1280 пикселей
Высота : 720 пикселей
Соотношение сторон : 16:9
Режим частоты кадров : Постоянный
Частота кадров : 25,000 кадров/сек
Цветовое пространство : YUV
Субдискретизация насыщенности : 4:2:0
Битовая глубина : 8 бит
Тип развёртки : Прогрессивная
Бит/(Пиксели*Кадры) : 0.163
Размер потока : 2,60 Гбайт (79%)
Библиотека кодирования : x264 core 125 r2208 d9d2288
Настройки программы : cabac=1 / ref=9 / deblock=1:-2:-2 / analyse=0x3:0x133 / me=umh / subme=10 / psy=1 / psy_rd=1.00:0.15 / mixed_ref=1 / me_range=32 / chroma_me=1 / trellis=2 / 8x8dct=1 / cqm=0 / deadzone=21,11 / fast_pskip=0 / chroma_qp_offset=-3 / threads=6 / lookahead_threads=1 / sliced_threads=0 / nr=0 / decimate=0 / interlaced=0 / bluray_compat=0 / constrained_intra=0 / bframes=8 / b_pyramid=2 / b_adapt=2 / b_bias=0 / direct=3 / weightb=1 / open_gop=0 / weightp=2 / keyint=250 / keyint_min=25 / scenecut=40 / intra_refresh=0 / rc=2pass / mbtree=0 / bitrate=3750 / ratetol=1.0 / qcomp=0.60 / qpmin=0 / qpmax=69 / qpstep=4 / cplxblur=20.0 / qblur=0.5 / ip_ratio=1.40 / pb_ratio=1.30 / aq=1:0.80
Default : Да
Forced : Нет

Аудио #1
Идентификатор : 2
Формат : AC-3
Формат/Информация : Audio Coding 3
Расширение режима : CM (complete main)
Параметр Endianness формата : Big
Идентификатор кодека : A_AC3
Продолжительность : 1 ч. 41 м.
Вид битрейта : Постоянный
Битрейт : 448 Кбит/сек
Каналы : 6 каналов
Расположение каналов : Front: L C R, Side: L R, LFE
Частота : 48,0 КГц
Битовая глубина : 16 бит
Метод сжатия : С потерями
Размер потока : 324 Мбайт (10%)
Язык : Russian
Default : Да
Forced : Нет

Аудио #2
Идентификатор : 3
Формат : AC-3
Формат/Информация : Audio Coding 3
Расширение режима : CM (complete main)
Параметр Endianness формата : Big
Идентификатор кодека : A_AC3
Продолжительность : 1 ч. 41 м.
Вид битрейта : Постоянный
Битрейт : 448 Кбит/сек
Каналы : 6 каналов
Расположение каналов : Front: L C R, Side: L R, LFE
Частота : 48,0 КГц
Битовая глубина : 16 бит
Метод сжатия : С потерями
Задержка видео : 23 мс.
Размер потока : 324 Мбайт (10%)
Язык : English
Default : Нет
Forced : Нет


Релиз от:




реклама партнёра


Вернуться к началу
 Профиль  
 
   Похожие торренты   Автор   Торрент   Размер 
В этой теме нет новых непрочитанных сообщений. Пересекая черту / Crossing Lines [03x01-07 из 12] (Дэниэл Персивал, Эрик Валетт, Энди Уилсон) [2015, Боевик, драма, криминал, HDTVRip | Sony Turbo]

Dracon

126 | 35

3.14 ГБ

В этой теме нет новых непрочитанных сообщений. Поездка на возу / Hayride [ужасы, драма, криминал, 2012] WEB-DL 720p, dvo

Dracon

34 | 8

2.07 ГБ

В этой теме нет новых непрочитанных сообщений. Маньяк / Maniac [ужасы, триллер, драма, криминал, 1980] BDRip 720p, Avo+Sub

salma3

40 | 0

4.48 ГБ

В этой теме нет новых непрочитанных сообщений. Джалло / Giallo [ужасы, триллер, драма, криминал, 2009] BDRip 720p, Mvo+Sub

salma3

59 | 4

4.4 ГБ

В этой теме нет новых непрочитанных сообщений. Тюрьма / Prison [Ужасы, триллер, драма, криминал, 1987] BDRip 720p, Mvo+Avo

salma3

6 | 5

4.37 ГБ

В этой теме нет новых непрочитанных сообщений. Преданные / The Betrayed [Триллер, драма, криминал, детектив, 2008] HDTVRip 720p, Dvo

salma3

67 | 4

3.92 ГБ

В этой теме нет новых непрочитанных сообщений. Цитадель / Citadel [ужасы, триллер, драма, 2012] BDRip 720p, avo+sub

Dracon

1 | 2

4.24 ГБ


Начать новую тему Ответить на тему  [ 1 сообщение ] 




Для Мосгорсуда, Роскомнадзора и рекламодателей:: mosgorsud-torrent[собачка]yandex.ru