Торрент файл
скачать торрент магнет ссылка Добавлен: 23 авг 2013, 22:29
Размер: 1.55 ГБ
Сидеров: 14
Личеров: 3
Статус: (salma3)
Автор

СообщениеДобавлено: 23 авг 2013, 22:29 

Не в сети
Супермодератор
Аватара пользователя
Дата регистрации:
15 фев 2012, 16:44
Возраст: 27
Спасибо: 5121 / 2089
Сообщения: 17282

Темная сторона луны / The Dark Side Of The Moon

Год выхода: 1990
Жанр: Фантастика, Мистика, Ужасы
Режиссер: Ди Джей Уэбстер

В ролях: Уилл Бледсоу, Алан Блуменфелд, Джон Дал, Роберт Сэмпсон, Уэнди МакДоналд, Камилла Мор

О фильме:
2022 год. Космический корабль, занимающийся очень рискованным занятием - ремонтом спутников, имеющих на своём вооружении ядерные заряды, получает сигнал SOS с тёмной стороны Луны, где обнаруживает кажущийся покинутым шатл...




Страна: США
Продолжительность: 01:27:12
Перевод: Авторский [одноголосый закадровый] [Л.Володарский]

Файл
Качество: DVDRip
Формат файла: AVI
Видео кодек: XviD
Аудио кодек: mp3
Видео: 768x576, 2400kbps, 23,976fps, Pixel frame 0,226
Звук: Russian (mp3, 2 ch, 128 Kbps)



F:ФантастикаТемная сторона Луны (1990) DVDRip Володарский.avi
General
Complete name : F:ФантастикаТемная сторона Луны (1990) DVDRip Володарский.avi
Format : AVI
Format/Info : Audio Video Interleave
Format profile : OpenDML
File size : 1.55 GiB
Duration : 1h 27mn
Overall bit rate mode : Variable
Overall bit rate : 2 541 Kbps
Writing application : Lavf51.12.1
Video #0
ID : 0
Format : AVC
Format/Info : Advanced Video Codec
Format profile : Baseline@L3.1
Format settings, CABAC : No
Format settings, ReFrames : 1 frame
Format settings, GOP : M=1, N=12
Codec ID : H264
Duration : 1h 27mn
Bit rate mode : Variable
Bit rate : 2 400 Kbps
Maximum bit rate : 3 600 Kbps
Width : 768 pixels
Height : 576 pixels
Display aspect ratio : 4:3
Frame rate : 23.976 fps
Original frame rate : 24.000 fps
Color space : YUV
Chroma subsampling : 4:2:0
Bit depth : 8 bits
Scan type : Progressive
Bits/(Pixel*Frame) : 0.226
Stream size : 1.46 GiB (94%)
Audio #1
ID : 1
Format : MPEG Audio
Format version : Version 1
Format profile : Layer 3
Mode : Joint stereo
Codec ID : 55
Codec ID/Hint : MP3
Duration : 1h 27mn
Bit rate mode : Constant
Bit rate : 128 Kbps
Channel(s) : 2 channels
Sampling rate : 44.1 KHz
Compression mode : Lossy
Stream size : 79.8 MiB (5%)
Alignment : Aligned on interleaves
Interleave, duration : 26 ms (0.63 video frame)
Interleave, preload duration : 26 ms
Writing library : LAME3.97




реклама партнёра


Вернуться к началу
 Профиль Отправить личное сообщение  
 
   Похожие торренты   Автор   Торрент   Размер 
В этой теме нет новых непрочитанных сообщений. Светлая сторона Луны / La prima notte della Luna / The bright side of the Moon (Массимо Гульельми / Massimo Guglielmi) [2010г., драма, SATRip] DVO

Alfredovich

7 | 2

1.36 ГБ

В этой теме нет новых непрочитанных сообщений. Тёмная сторона Луны / Die dunkle Seite des Mondes [триллер, 2015] BDRip 1080p, Mvo

salma3

33 | 4

7.32 ГБ

В этой теме нет новых непрочитанных сообщений. Тёмная сторона Луны / Die dunkle Seite des Mondes (Штефан Рик / Stephan Rick) [2015г., Германия, триллер, BDRip] AVO + MVO

Alfredovich

22 | 7

1.59 ГБ

В этой теме нет новых непрочитанных сообщений. Обратная сторона Луны [1-16 из 16] [2012г.,Фантастика, драма, криминал, детектив] WEBRip

iopuk60

0 | 5

8.69 ГБ

В этой теме нет новых непрочитанных сообщений. Medicine Head - Dark Side Of the Moon (1972) [2004, Rock, Blues Rock, Progressive Rock, MP3]

PriZraK

1 | 2

82.42 МБ

В этой теме нет новых непрочитанных сообщений. Дитя луны / Moon Child [фантастика, боевик, драма, 2003] BDRip 1080p, Mvo+Sub

salma3

37 | 19

9.15 ГБ

В этой теме нет новых непрочитанных сообщений. Восход «Черной луны» / Black Moon Rising [Боевик, фантастика, триллер, 1986] BDRip 1080p, Mvo+Dvo+Avo+Sub

salma3

31 | 12

11.94 ГБ


СообщениеДобавлено: 25 авг 2013, 21:34 

Не в сети
Аватара пользователя
Дата регистрации:
14 апр 2013, 12:56
Спасибо: 0 / 2
Сообщения: 15
Столько народу скачало, хоть бы один отписался стоит фильм внимания или нет. :( Хорошее качество звука, видео или нет. :?
Или здесь на трекере так не принято :unknown:


Вернуться к началу
 Профиль Отправить личное сообщение  
 

СообщениеДобавлено: 25 авг 2013, 22:17 

Не в сети
Супермодератор
Аватара пользователя
Дата регистрации:
15 фев 2012, 16:44
Возраст: 27
Спасибо: 5121 / 2089
Сообщения: 17282
неплохой фильм ,актеры играют хорошо ,атмосфера страха также имеется,недостатков в принцие и нет,тока правда минус можно поставить ,за большую часть фильма в темноте невозможно разглядеть окружающуу обстановку

_________________


Вернуться к началу
 Профиль Отправить личное сообщение  
 
Начать новую тему Ответить на тему  [ Сообщений: 3 ] 




Для Мосгорсуда, Роскомнадзора и рекламодателей:: mosgorsud-torrent[собачка]yandex.ru