Торрент файл
скачать торрент магнет ссылка Добавлен: 22 авг 2013, 16:46
Размер: 1.45 ГБ
Сидеров: 139
Личеров: 13
Статус: (salma3)
Автор

СообщениеДобавлено: 22 авг 2013, 16:46 

Не в сети
Супермодератор
Аватара пользователя
Дата регистрации:
15 фев 2012, 16:44
Возраст: 27
Спасибо: 5139 / 2089
Сообщения: 17411

Бессмертные воины / Hell Warriors

Год выхода: 2004
Жанр: Фэнтези
Режиссер: Пол Мэттьюз

В ролях: Пол Йоханссон, Крэйг Шеффер, Кари Вурер, Патрик Бергин, Ник Борэйни, Дэвид Дюка, Гарт Коллинз, Дэйл Каттс, Энтони Бишоп, Стивен Кутзее

О фильме:
В незапамятные времена, суровый властитель Асгарда обрёк одну из непокорных валькирий на вечные муки в мире смертных — Мидгарде. С тех пор многие воины пытались прекрасную деву из плена негасимого огня, которым окружил её Отец Богов. Но только один герой оказался настолько чист в своих помыслах, что ему удалось свершить этот подвиг и… великое зло явилось в мир смертных. Проклятие бессмертия поразило тех, кто осмелился пойти против воли богов. Храбрые викинги превратились в кровожадных берсеркеров. Отец поднял меч на сына, брат на брата. Могущественные силы сошлись в страшной битве много веков назад… И сражение это не закончено и поныне. Пока ещё ступает по земле последний бессмертный воин — противостояние продолжается!




Страна: Южная Африка
Продолжительность: 01:24:35
Перевод: Профессиональный [двухголосый]

Файл
Качество: DVDRip
Формат файла: AVI
Видео кодек: XviD
Аудио кодек: AC3
Видео: 704x400 (1.76:1), 23.976 fps, XviD 0.23 bit/pixel
Аудио: #1: 48 kHz, AC3 6.0 ~448.00 kbps avg [двухголосый]
Аудио: #2: 48 kHz, AC3 6.0 ~448.00 kbps avg [Original]



Общее
Полное имя : D:1АААБессмертные воины.avi
Формат : AVI
Формат/Информация : Audio Video Interleave
Размер файла : 1,45 Гбайт
Продолжительность : 1 ч. 24 м.
Общий поток : 2465 Кбит/сек
Программа кодирования : VirtualDubMod 1.5.10.2 (build 2540/release)
Библиотека кодирования : VirtualDubMod build 2540/release

Видео
Идентификатор : 0
Формат : MPEG-4 Visual
Профиль формата : Advanced Simple@L5
Параметр BVOP формата : 2
Параметр QPel формата : Нет
Параметр GMC формата : Без точки перехода
Параметр матрицы формата : Default (MPEG)
Режим смешивания : Сжатый битовый поток
Идентификатор кодека : XVID
Идентификатор кодека/Подсказка : XviD
Продолжительность : 1 ч. 24 м.
Битрейт : 1557 Кбит/сек
Ширина : 704 пикселя
Высота : 400 пикселей
Соотношение сторон : 16:9
Частота кадров : 23,976 кадра/сек
Цветовое пространство : YUV
Субдискретизация насыщенности : 4:2:0
Битовая глубина : 8 бит
Тип развёртки : Прогрессивная
Метод сжатия : С потерями
Бит/(Пиксели*Кадры) : 0.231
Размер потока : 941 Мбайт (63%)
Библиотека кодирования : XviD 1.2.1 (UTC 2008-12-04)

Аудио #1
Идентификатор : 1
Формат : AC-3
Формат/Информация : Audio Coding 3
Расширение режима : CM (complete main)
Параметр Endianness формата : Big
Идентификатор кодека : 2000
Продолжительность : 1 ч. 24 м.
Вид битрейта : Постоянный
Битрейт : 448 Кбит/сек
Каналы : 6 каналов
Расположение каналов : Front: L C R, Side: L R, LFE
Частота : 48,0 КГц
Битовая глубина : 16 бит
Метод сжатия : С потерями
Размер потока : 270 Мбайт (18%)
Выравнивание : Разделение по промежуткам
Продолжительность промежутка : 42 мс. (1,00 видеокадр)
Время предзагрузки промежутка : 500 мс.

Аудио #2
Идентификатор : 2
Формат : AC-3
Формат/Информация : Audio Coding 3
Расширение режима : CM (complete main)
Параметр Endianness формата : Big
Идентификатор кодека : 2000
Продолжительность : 1 ч. 24 м.
Вид битрейта : Постоянный
Битрейт : 448 Кбит/сек
Каналы : 6 каналов
Расположение каналов : Front: L C R, Side: L R, LFE
Частота : 48,0 КГц
Битовая глубина : 16 бит
Метод сжатия : С потерями
Размер потока : 270 Мбайт (18%)
Выравнивание : Разделение по промежуткам
Продолжительность промежутка : 42 мс. (1,00 видеокадр)
Время предзагрузки промежутка : 500 мс.


Релиз группа:Автор рипа:




реклама партнёра


Вернуться к началу
 Профиль Отправить личное сообщение  
 
   Похожие торренты   Автор   Торрент   Размер 
В этой теме нет новых непрочитанных сообщений. Воины дракона / Dragon Warriors (Маклейн Нельсон, Стивен Шимек) [2015, фэнтези, боевик, комедия, SATRip] mvo

Nickolas3435

225 | 20

1.45 ГБ

В этой теме нет новых непрочитанных сообщений. Воины джунглей / Jungle warriors [Боевик, 1984] DVDRip, Avo

salma3

22 | 6

1.37 ГБ

В этой теме нет новых непрочитанных сообщений. Воины Терра / Warriors of Terra [ужасы, фантастика, 2006] DVDRip,Dvo

salma3

76 | 3

1.33 ГБ

В этой теме нет новых непрочитанных сообщений. Кровавые воины / Blood Warriors [боевик, драма, 1993] DVDRip, Mvo+Avo

salma3

12 | 3

1.46 ГБ

В этой теме нет новых непрочитанных сообщений. Доблестные воины / Warriors of Virtue [Фантастический боевик, 1997] DVDRip, Avo

salma3

2 | 0

702.18 МБ

В этой теме нет новых непрочитанных сообщений. Космические воины / Space Warriors [семейный, 2013] HDRip, Mvo

Dracon

119 | 4

1.37 ГБ

В этой теме нет новых непрочитанных сообщений. Воины дюн / Dune Warriors [фантастика, боевик, приключения, 1991] HDRip, Avo

salma3

38 | 8

1.47 ГБ


Начать новую тему Ответить на тему  [ 1 сообщение ] 




Для Мосгорсуда, Роскомнадзора и рекламодателей:: mosgorsud-torrent[собачка]yandex.ru