Торрент файл
скачать торрент магнет ссылка Добавлен: 21 авг 2013, 20:57
Размер: 1.45 ГБ
Сидеров: 78
Личеров: 8
Статус: (salma3)
Автор

СообщениеДобавлено: 21 авг 2013, 20:57 

Не в сети
Супермодератор
Аватара пользователя
Дата регистрации:
15 фев 2012, 16:44
Возраст: 27
Спасибо: 5121 / 2089
Сообщения: 17282

Генетическая особь / Deep Evil

Год выхода: 2004
Жанр: Ужасы
Режиссер: Пэт Уильямс

В ролях: Лоренцо Ламас, Она Грауэр, Адам Хэррингтон, Джим Торберн, Уилл Сэндерсон, Рэйчел Хейуорд, Майкл Копса, Линдсэй Максвелл, Рэйчел Гродник, Майкл П. Норти

О фильме:
Элитный отряд американского спецназа поднят по тревоге после загадочной аварии в сверхсекретной лаборатории на Аляске. Избранным бойцам во главе с биохимиками Лэнгдоном и Коул предстоит попасть в огромный подземный город, где лучшие умы страны работают над уникальной добычей военных: мыслящим инопланетным вирусом, извлеченным из метеорита, упавшего в Сибири. Им удалось клонировать его, создав жидкую субстанцию, способную порабощать любые живые организмы. Это непобедимое оружие Судного Дня. Никто не знает, что происходит в герметично запечатанном комплексе, но ученые не хотят верить, что случилось самое страшное — пришелец-мутант обрел свободу и теперь ищет путь во внешний мир, с каждой секундой становясь, все умнее и коварнее…




Страна: Канада
Продолжительность: 01:29:20
Перевод: Профессиональный [многоголосый]

Файл
Качество: DVDRip
Формат файла: AVI
Видео кодек: XviD
Аудио кодек: AC3
Видео: 704x528 (1.33:1), 23.976 fps, XviD 0.16 bit/pixel
Аудио: #1: 48 kHz, AC3 6.0 ~448.00 kbps avg [многоголосый]
Аудио: #2: 48 kHz, AC3 6.0 ~448.00 kbps avg [Orifinal]



Общее
Полное имя : D:1АААГенетическая особь.avi
Формат : AVI
Формат/Информация : Audio Video Interleave
Размер файла : 1,45 Гбайт
Продолжительность : 1 ч. 29 м.
Общий поток : 2326 Кбит/сек
Программа кодирования : VirtualDubMod 1.5.10.2 (build 2540/release)
Библиотека кодирования : VirtualDubMod build 2540/release

Видео
Идентификатор : 0
Формат : MPEG-4 Visual
Профиль формата : Advanced Simple@L5
Параметр BVOP формата : 2
Параметр QPel формата : Нет
Параметр GMC формата : Без точки перехода
Параметр матрицы формата : Default (MPEG)
Режим смешивания : Сжатый битовый поток
Идентификатор кодека : XVID
Идентификатор кодека/Подсказка : XviD
Продолжительность : 1 ч. 29 м.
Битрейт : 1416 Кбит/сек
Ширина : 704 пикселя
Высота : 528 пикселей
Соотношение сторон : 4:3
Частота кадров : 23,976 кадра/сек
Цветовое пространство : YUV
Субдискретизация насыщенности : 4:2:0
Битовая глубина : 8 бит
Тип развёртки : Прогрессивная
Метод сжатия : С потерями
Бит/(Пиксели*Кадры) : 0.159
Размер потока : 905 Мбайт (61%)
Библиотека кодирования : XviD 1.2.1 (UTC 2008-12-04)

Аудио #1
Идентификатор : 1
Формат : AC-3
Формат/Информация : Audio Coding 3
Расширение режима : CM (complete main)
Параметр Endianness формата : Big
Идентификатор кодека : 2000
Продолжительность : 1 ч. 29 м.
Вид битрейта : Постоянный
Битрейт : 448 Кбит/сек
Каналы : 6 каналов
Расположение каналов : Front: L C R, Side: L R, LFE
Частота : 48,0 КГц
Битовая глубина : 16 бит
Метод сжатия : С потерями
Размер потока : 286 Мбайт (19%)
Выравнивание : Разделение по промежуткам
Продолжительность промежутка : 42 мс. (1,00 видеокадр)
Время предзагрузки промежутка : 500 мс.

Аудио #2
Идентификатор : 2
Формат : AC-3
Формат/Информация : Audio Coding 3
Расширение режима : CM (complete main)
Параметр Endianness формата : Big
Идентификатор кодека : 2000
Продолжительность : 1 ч. 29 м.
Вид битрейта : Постоянный
Битрейт : 448 Кбит/сек
Каналы : 6 каналов
Расположение каналов : Front: L C R, Side: L R, LFE
Частота : 48,0 КГц
Битовая глубина : 16 бит
Метод сжатия : С потерями
Размер потока : 286 Мбайт (19%)
Выравнивание : Разделение по промежуткам
Продолжительность промежутка : 42 мс. (1,00 видеокадр)
Время предзагрузки промежутка : 500 мс.

Релиз группа:Автор рипа:




реклама партнёра


Вернуться к началу
 Профиль Отправить личное сообщение  
 
   Похожие торренты   Автор   Торрент   Размер 
В этой теме нет новых непрочитанных сообщений. Невидимое зло 2: Против хищника / Unseen Evil 2 [ужасы, 2004] DVDRip, Dvo

salma3

52 | 4

744.72 МБ

В этой теме нет новых непрочитанных сообщений. Evil Anal #18 / Злой Анал # 18 (Manuel Ferrara / Evil Angel) (Bailey Blue, Dana DeArmond, London Keyes, Manuel Ferrara, Mia Gold...) [2013 г., Anal, Deep Throat, Hardcore, All Sex, WEB-DL 720p] Split Scenes

Mitya495

137 | 11

4.66 ГБ

В этой теме нет новых непрочитанных сообщений. Обитель зла: Пенталогия / Resident Evil: Pentalogy [ужасы, фантастика, 2002, 2004, 2007, 2010, 2012] BDRip, Avo [Гаврилов]

salma3

10 | 3

7.28 ГБ

В этой теме нет новых непрочитанных сообщений. Slurpy Throatsluts 2 / Слюнявые Вафлерши 2 (Mike Adriano / Evil Angel) (Alina Li, Allie Haze, Anila Avana, Cali Carter, Chanell Heart...) [2014 г., Oral Sex, Gonzo, POV, Deep Throat, DVDRip 394p]

friizze

0 | 7

2.55 ГБ

В этой теме нет новых непрочитанных сообщений. Не поминай зло / Speak No Evil [ужасы, 2013] DVDRip, Dvo

salma3

198 | 3

1.37 ГБ

В этой теме нет новых непрочитанных сообщений. Невидимое зло / Unseen Evil [ужасы, 2001] DVDRip, Avo

salma3

4 | 4

745.48 МБ

В этой теме нет новых непрочитанных сообщений. Злые духи / Evil Spirits [ужасы, 1990] DVDRip, Avo

salma3

23 | 6

1.37 ГБ


Начать новую тему Ответить на тему  [ 1 сообщение ] 




Для Мосгорсуда, Роскомнадзора и рекламодателей:: mosgorsud-torrent[собачка]yandex.ru