Торрент файл
скачать торрент магнет ссылка Добавлен: 19 авг 2013, 19:14
Размер: 1.21 ГБ
Сидеров: 21
Личеров: 4
Статус: (salma3)
Автор

СообщениеДобавлено: 19 авг 2013, 19:14 

Не в сети
Супермодератор
Аватара пользователя
Дата регистрации:
15 фев 2012, 16:44
Возраст: 27
Спасибо: 5707 / 2111
Сообщения: 24915

Страна: Канада
Производство: Waterfront Entertainment
Жанр: Ужасы
Год выпуска: 2003

Продолжительность: 01:38:24
Перевод: Профессиональный двухголосый

Оригинальная аудиодорожка: Английская

Cубтитры: Нет
Режиссер: Марк С. Гренье
В ролях: Уильям Болдуин, Джоди Лин О’Кифи, Бренда Джеймс, Фрэнсис З. МакКарти, Дебора Аллен, Чарли Риндресс, Леа Каннингэм, Пегги Гедеон, Пол Лебланк, Кэсси МакДональд


Описание: История о брате Уильяме и сестре Кайли Логан, которые после неожиданной смерти отца получают в наследство Викторианский особняк в рыбацкой деревне на берегу далекого острова. В пятилетнем возрасте Кайли стала свидетельницей смерти матери во время пожара и получила психическую травму. Ее брат Уильям становится психиатром, чтобы вылечить сестру и помочь ей смело смотреть в лицо своим страхам… Как только они приехали на остров, Кайли ощутила зловещее присутствие таинственной силы. Сеть загадок и непонятных легенд перерастает в трагические смерти, и семейное проклятие начинает свою охоту на них. В скором времени брат с сестрой понимают, что унаследовали что-то большее, чем особняк…

Исходник: DVD5 R5

Тип релиза: DVDRip

Контейнер: AVI
Видео: 704x528 (1.33:1), 23.976 fps, XviD 0.14 bit/pixel
Аудио: #1: 48 kHz, AC3 2.0 ~224.00 kbps avg (RUS)
Аудио: #2: 48 kHz, AC3 2.0 ~256.00 kbps avg (ENG)

Общее
Полное имя : D:1АААКрасный бродяга.avi
Формат : AVI
Формат/Информация : Audio Video Interleave
Размер файла : 1,21 Гбайт
Продолжительность : 1 ч. 38 м.
Общий поток : 1762 Кбит/сек
Программа кодирования : VirtualDubMod 1.5.10.2 (build 2540/release)
Библиотека кодирования : VirtualDubMod build 2540/release

Видео
Идентификатор : 0
Формат : MPEG-4 Visual
Профиль формата : Advanced Simple@L5
Параметр BVOP формата : 2
Параметр QPel формата : Нет
Параметр GMC формата : Без точки перехода
Параметр матрицы формата : Default (MPEG)
Режим смешивания : Сжатый битовый поток
Идентификатор кодека : XVID
Идентификатор кодека/Подсказка : XviD
Продолжительность : 1 ч. 38 м.
Битрейт : 1268 Кбит/сек
Ширина : 704 пикселя
Высота : 528 пикселей
Соотношение сторон : 4:3
Частота кадров : 23,976 кадра/сек
Цветовое пространство : YUV
Субдискретизация насыщенности : 4:2:0
Битовая глубина : 8 бит
Тип развёртки : Прогрессивная
Метод сжатия : С потерями
Бит/(Пиксели*Кадры) : 0.142
Размер потока : 893 Мбайт (72%)
Библиотека кодирования : XviD 1.2.1 (UTC 2008-12-04)

Аудио #1
Идентификатор : 1
Формат : AC-3
Формат/Информация : Audio Coding 3
Расширение режима : CM (complete main)
Параметр Endianness формата : Big
Идентификатор кодека : 2000
Продолжительность : 1 ч. 38 м.
Вид битрейта : Постоянный
Битрейт : 224 Кбит/сек
Каналы : 2 канала
Расположение каналов : Front: L R
Частота : 48,0 КГц
Битовая глубина : 16 бит
Метод сжатия : С потерями
Размер потока : 158 Мбайт (13%)
Выравнивание : Разделение по промежуткам
Продолжительность промежутка : 42 мс. (1,00 видеокадр)
Время предзагрузки промежутка : 500 мс.

Аудио #2
Идентификатор : 2
Формат : AC-3
Формат/Информация : Audio Coding 3
Расширение режима : CM (complete main)
Параметр Endianness формата : Big
Идентификатор кодека : 2000
Продолжительность : 1 ч. 38 м.
Вид битрейта : Постоянный
Битрейт : 256 Кбит/сек
Каналы : 2 канала
Расположение каналов : Front: L R
Частота : 48,0 КГц
Битовая глубина : 16 бит
Метод сжатия : С потерями
Размер потока : 180 Мбайт (15%)
Выравнивание : Разделение по промежуткам
Продолжительность промежутка : 42 мс. (1,00 видеокадр)
Время предзагрузки промежутка : 500 мс.



Релиз группа:Автор рипа:




реклама партнёра


Вернуться к началу
 Профиль Отправить личное сообщение  
 
   Похожие торренты   Автор   Торрент   Размер 
В этой теме нет новых непрочитанных сообщений. Ровер / Бродяга / The Rover [Драма, криминал, 2014] BDRip 720p, Mvo+Sub

Dracon

571 | 23

4.63 ГБ

В этой теме нет новых непрочитанных сообщений. Ровер / Бродяга / The Rover [Драма, криминал, 2014] WEB-DLRip [Матвеев]

Dracon

384 | 5

1.45 ГБ

В этой теме нет новых непрочитанных сообщений. Ровер / Бродяга / The Rover [Драма, криминал, 2014] WEB-DL 720p [Матвеев]

Dracon

460 | 10

3.53 ГБ

В этой теме нет новых непрочитанных сообщений. Ровер / The Rover [Драма, криминал, 2014] HDRip, Mvo

Dracon

15 | 2

2.04 ГБ

В этой теме нет новых непрочитанных сообщений. Ровер / The Rover [Драма, криминал, 2014] HDRip, Mvo

Dracon

15 | 5

1.45 ГБ

В этой теме нет новых непрочитанных сообщений. Ровер / The Rover [Драма, криминал, 2014] DVD5, Mvo [Лицензия]

Dracon

25 | 5

3.84 ГБ

В этой теме нет новых непрочитанных сообщений. Ровер / The Rover [Драма, криминал, 2014] BDRip 1080p, Mvo+Dvo+Avo+Sub [Лицензия]

Dracon

398 | 86

8.16 ГБ


Начать новую тему Ответить на тему  [ 1 сообщение ] 




Для Мосгорсуда, Роскомнадзора и рекламодателей:: mosgorsud-torrent[собачка]yandex.ru