Торрент файл
скачать торрент магнет ссылка Добавлен: 19 авг 2013, 19:06
Размер: 1.33 ГБ
Сидеров: 4
Личеров: 2
Статус: (salma3)
Автор

СообщениеДобавлено: 19 авг 2013, 19:06 

Не в сети
Супермодератор
Аватара пользователя
Дата регистрации:
15 фев 2012, 16:44
Возраст: 27
Спасибо: 5139 / 2089
Сообщения: 17425

Информация о фильме
Название: Смертельная паутина
Оригинальное название: Wu du tian luo
Год выхода: 1976
Жанр: боевые искусства
Режиссер: Юэнь Чор
В ролях: Хуа Юех, Лье Ло, Ли Чинг, Фенг Ку, Хсие Вонг, Чиен Ю, Чунг Ванг, Лили Лай, Фэй Аи, Шен Чан

О фильме:
Близится фестиваль середины осени, на котором планируется провести турнир по боевым искусствам для выявления лучшего бойца в боевом мире. Коварные представители клана 5 ядовитых пауков не намерены побеждать честным путем. Они убивают главу своего клана и освобождают ядовитого паука, который был замурован в склепе 100 лет назад. Этот паук способен убивать на расстоянии и от него нет никакой защиты. Боевой мир практически обречен, но как и в любом подобном фильме появляется герой, способный остановить зло…

Страна: Китай, Гонконг
Студия: Shaw Brothers
Продолжительность: 01:26:53
Перевод: Любительский одноголосый закадровый (Jet)

Файл
Кодек: x264
Качество: DVDRip-AVC
Видео: 720x304, 23.976 fps, 2 000 Kbps.
Звук: AC-3, 2 channels, 192 Kbps, 48.0 KHz
Субтитры: нет

Формат : Matroska
Версия формата : Version 4 / Version 2
Размер файла : 1,33 Гбайт
Продолжительность : 1 ч. 26 м.
Общий поток : 2194 Кбит/сек
Дата кодирования : UTC 2013-03-23 19:24:23
Программа кодирования : mkvmerge v6.1.0 ('Old Devil') built on Mar 2 2013 14:32:37
Библиотека кодирования : libebml v1.3.0 + libmatroska v1.4.0

Видео
Идентификатор : 1
Формат : AVC
Формат/Информация : Advanced Video Codec
Профиль формата : High@L4.1
Параметр CABAC формата : Да
Параметр ReFrames формата : 3 кадра
Идентификатор кодека : V_MPEG4/ISO/AVC
Продолжительность : 1 ч. 26 м.
Битрейт : 2000 Кбит/сек
Ширина : 720 пикселей
Высота : 304 пикселя
Соотношение сторон : 2,35:1
Режим частоты кадров : Постоянный
Частота кадров : 23,976 кадра/сек
Цветовое пространство : YUV
Субдискретизация насыщенности : 4:2:0
Битовая глубина : 8 бит
Тип развёртки : Прогрессивная
Бит/(Пиксели*Кадры) : 0.381
Размер потока : 1,19 Гбайт (89%)
Библиотека кодирования : x264 core 116 r2019M 9cc407d
Настройки программы : cabac=1 / ref=3 / deblock=1:0:0 / analyse=0x3:0x133 / me=hex / subme=7 / psy=1 / psy_rd=1.00:0.20 / mixed_ref=1 / me_range=16 / chroma_me=1 / trellis=1 / 8x8dct=1 / cqm=0 / deadzone=21,11 / fast_pskip=1 / chroma_qp_offset=-3 / threads=1 / sliced_threads=0 / nr=0 / decimate=1 / interlaced=0 / bluray_compat=0 / constrained_intra=0 / bframes=3 / b_pyramid=1 / b_adapt=2 / b_bias=0 / direct=3 / weightb=1 / open_gop=0 / weightp=2 / keyint=230 / keyint_min=23 / scenecut=40 / intra_refresh=0 / rc_lookahead=0 / rc=2pass / mbtree=1 / bitrate=2000 / ratetol=1.0 / qcomp=0.60 / qpmin=10 / qpmax=51 / qpstep=4 / cplxblur=20.0 / qblur=0.5 / ip_ratio=1.40 / aq=1:1.00
Язык : Russian
Default : Да
Forced : Нет

Аудио
Идентификатор : 2
Формат : AC-3
Формат/Информация : Audio Coding 3
Расширение режима : CM (complete main)
Параметр Endianness формата : Big
Идентификатор кодека : A_AC3
Продолжительность : 1 ч. 26 м.
Вид битрейта : Постоянный
Битрейт : 192 Кбит/сек
Каналы : 2 канала
Расположение каналов : Front: L R
Частота : 48,0 КГц
Битовая глубина : 16 бит
Метод сжатия : С потерями
Размер потока : 119 Мбайт (9%)
Язык : Russian
Default : Да
Forced : Нет





реклама партнёра


Вернуться к началу
 Профиль Отправить личное сообщение  
 
   Похожие торренты   Автор   Торрент   Размер 
В этой теме нет новых непрочитанных сообщений. Мастер / Long hang tian xia [Боевик, боевые искусства, 1992] BDRip 1080p, Avo

salma3

64 | 7

5.98 ГБ

В этой теме нет новых непрочитанных сообщений. Тайные соперники / Nan quan bei tui [Боевик, боевые искусства, 1976] DVDRip-AVC, Avo

salma3

54 | 17

1.89 ГБ

В этой теме нет новых непрочитанных сообщений. Рука смерти / Shao Lin men [Боевик, боевые искусства, 1976] BDRip 1080p, Mvo

salma3

13 | 8

6.57 ГБ

В этой теме нет новых непрочитанных сообщений. Новый кулак ярости / New Fist Of Fury [Боевик, боевые искусства, драма, 1976] BDRip 1080p, Mvo+Dvo

salma3

58 | 5

7.28 ГБ

В этой теме нет новых непрочитанных сообщений. Вин Чун / Wing Chun [Боевик, боевые искусства, 1994] DVDRip-AVC, Avo

salma3

273 | 35

2.04 ГБ

В этой теме нет новых непрочитанных сообщений. Мой самурай / My Samurai [Боевик, боевые искусства, 1992] DVDRip, Avo

salma3

1 | 0

1.45 ГБ

В этой теме нет новых непрочитанных сообщений. Рандеву со смертью / Rendezvous with Death [Боевые искусства, 1980] DVDRip, Avo

salma3

18 | 6

1.46 ГБ


Начать новую тему Ответить на тему  [ 1 сообщение ] 




Для Мосгорсуда, Роскомнадзора и рекламодателей:: mosgorsud-torrent[собачка]yandex.ru