Торрент файл
скачать торрент магнет ссылка Добавлен: 19 авг 2013, 18:58
Размер: 1.46 ГБ
Сидеров: 29
Личеров: 5
Статус: (salma3)
Автор

СообщениеДобавлено: 19 авг 2013, 18:58 

Не в сети
Супермодератор
Аватара пользователя
Дата регистрации:
15 фев 2012, 16:44
Возраст: 27
Спасибо: 5139 / 2090
Сообщения: 17432
Почтальон всегда звонит дважды / The Postman Always Rings Twice

Год выхода: 1981
Жанр: триллер, драма, мелодрама
Режиссер: Боб Рейфелсон / Bob Rafelson

В ролях: Джек Николсон, Джессика Лэнг, Джон Коликос, Майкл Лернер, Джон П. Райан, Анжелика Хьюстон, Уильям Трейлор, Томас Хилл, Джон Ван Несс, Брайан Фэррел...

О фильме:
Времена Великой Депрессии. Бродяга Фрэнк Чемберс нанимается в работники на бензоколонку к пожилому греку Нику Пападакису, который вместе с молодой женой Корой содержит таверну «Два дуба». Словно луч света в темном царстве, стало для Коры появление Фрэнка в их доме.
Изнывающая в скучном, бесстрастном браке, она влюбляется во Фрэнка. Между ними вспыхивает безудержная страсть и Коре первой приходит в голову мысль избавиться от постылого мужа — со второй попытки им это удается. И когда случается непоправимое — за преступлением следует наказание.




Страна: США, Германия (ФРГ)
Продолжительность: 01:56:15
Перевод: Профессиональный (дублированный)

Файл
Качество: DVDRip
Формат файла: AVI
Видео кодек: XviD
Аудио кодек: AC3
Видео: 720x400 (16:9), 25.000 fps, XViD ~ 1593 kbps avg, 0.221 bit/pixel
Аудио: 48 kHz, АС3 2 ch, 192 kbps, [русский]





Общее
Полное имя : Pochtalyon.vsegda.zvonit.dvajdy.1981.D.DVDRip_[Youtracker]_by_avproh.avi
Формат : AVI
Формат/Информация : Audio Video Interleave
Размер файла : 1,46 Гбайт
Продолжительность : 1 ч. 56 м.
Общий поток : 1795 Кбит/сек
Программа кодирования : VirtualDubMod 1.5.10.3 | http://www.virtualdub-fr.org || (build 2550/release)
Библиотека кодирования : VirtualDubMod build 2550/release

Видео
Идентификатор : 0
Формат : MPEG-4 Visual
Профиль формата : Advanced Simple@L5
Параметр BVOP формата : 1
Параметр QPel формата : Нет
Параметр GMC формата : Без точки перехода
Параметр матрицы формата : Выборочная
Идентификатор кодека : XVID
Идентификатор кодека/Подсказка : XviD
Продолжительность : 1 ч. 56 м.
Битрейт : 1593 Кбит/сек
Ширина : 720 пикселей
Высота : 400 пикселей
Соотношение сторон : 16:9
Частота кадров : 25,000 кадров/сек
Цветовое пространство : YUV
Субдискретизация насыщенности : 4:2:0
Битовая глубина : 8 бит
Тип развёртки : Прогрессивная
Метод сжатия : С потерями
Бит/(Пиксели*Кадры) : 0.221
Размер потока : 1,29 Гбайт (89%)
Библиотека кодирования : XviD 65

Аудио
Идентификатор : 1
Формат : AC-3
Формат/Информация : Audio Coding 3
Расширение режима : CM (complete main)
Параметр Endianness формата : Big
Идентификатор кодека : 2000
Продолжительность : 1 ч. 56 м.
Вид битрейта : Постоянный
Битрейт : 192 Кбит/сек
Каналы : 2 канала
Расположение каналов : Front: L R
Частота : 48,0 КГц
Битовая глубина : 16 бит
Метод сжатия : С потерями
Размер потока : 160 Мбайт (11%)
Выравнивание : Разделение по промежуткам
Продолжительность промежутка : 40 мс. (1,00 видеокадр)
Время предзагрузки промежутка : 500 мс.

Раздача от:




реклама партнёра


Вернуться к началу
 Профиль Отправить личное сообщение  
 
   Похожие торренты   Автор   Торрент   Размер 
В этой теме нет новых непрочитанных сообщений. Почтальон Пэт / Postman Pat: The Movie [Мультфильм, 2014] DVD5, Dub [Лицензия]

Dracon

34 | 15

4.32 ГБ

В этой теме нет новых непрочитанных сообщений. Почтальон Пэт / Postman Pat: The Movie [Мультфильм, Комедия, семейный, 2014] BDRip 1080p, Dub [Лицензия | 3D-Video]

Dracon

57 | 3

4.89 ГБ

В этой теме нет новых непрочитанных сообщений. Почтальон Пэт / Postman Pat: The Movie [Мультфильм, комедия, семейный, 2014] HDRip, dub [Чистый звук]

Dracon

831 | 15

1.37 ГБ

В этой теме нет новых непрочитанных сообщений. Отель «Америка» / Hôtel des Amériques [драма, мелодрама, 1981] DVDRip, Mvo

salma3

3 | 3

1.37 ГБ

В этой теме нет новых непрочитанных сообщений. Снегурочка [Драма, мелодрама, триллер, 2013] DVDRip [Лицензия]

Dracon

346 | 19

1.46 ГБ

В этой теме нет новых непрочитанных сообщений. Когда звонит незнакомец / When a Stranger Calls [ужасы, триллер, 1979] BDRip, Avo

salma3

5 | 5

1.45 ГБ

В этой теме нет новых непрочитанных сообщений. Когда звонит незнакомец / When a Stranger Calls [Ужасы, триллер, 1979] BDRip 720p, Avo+Sub

salma3

15 | 0

6.98 ГБ


Начать новую тему Ответить на тему  [ 1 сообщение ] 




Для Мосгорсуда, Роскомнадзора и рекламодателей:: mosgorsud-torrent[собачка]yandex.ru