Торрент файл
скачать торрент магнет ссылка Добавлен: 19 авг 2013, 18:58
Размер: 1.46 ГБ
Сидеров: 29
Личеров: 5
Статус: (salma3)
Автор

СообщениеДобавлено: 19 авг 2013, 18:58 

Не в сети
Супермодератор
Аватара пользователя
Дата регистрации:
15 фев 2012, 16:44
Возраст: 28
Спасибо: 7165 / 2147
Сообщения: 62265
Почтальон всегда звонит дважды / The Postman Always Rings Twice

Год выхода: 1981
Жанр: триллер, драма, мелодрама
Режиссер: Боб Рейфелсон / Bob Rafelson

В ролях: Джек Николсон, Джессика Лэнг, Джон Коликос, Майкл Лернер, Джон П. Райан, Анжелика Хьюстон, Уильям Трейлор, Томас Хилл, Джон Ван Несс, Брайан Фэррел...

О фильме:
Времена Великой Депрессии. Бродяга Фрэнк Чемберс нанимается в работники на бензоколонку к пожилому греку Нику Пападакису, который вместе с молодой женой Корой содержит таверну «Два дуба». Словно луч света в темном царстве, стало для Коры появление Фрэнка в их доме.
Изнывающая в скучном, бесстрастном браке, она влюбляется во Фрэнка. Между ними вспыхивает безудержная страсть и Коре первой приходит в голову мысль избавиться от постылого мужа — со второй попытки им это удается. И когда случается непоправимое — за преступлением следует наказание.




Страна: США, Германия (ФРГ)
Продолжительность: 01:56:15
Перевод: Профессиональный (дублированный)

Файл
Качество: DVDRip
Формат файла: AVI
Видео кодек: XviD
Аудио кодек: AC3
Видео: 720x400 (16:9), 25.000 fps, XViD ~ 1593 kbps avg, 0.221 bit/pixel
Аудио: 48 kHz, АС3 2 ch, 192 kbps, [русский]





Общее
Полное имя : Pochtalyon.vsegda.zvonit.dvajdy.1981.D.DVDRip_[Youtracker]_by_avproh.avi
Формат : AVI
Формат/Информация : Audio Video Interleave
Размер файла : 1,46 Гбайт
Продолжительность : 1 ч. 56 м.
Общий поток : 1795 Кбит/сек
Программа кодирования : VirtualDubMod 1.5.10.3 | http://www.virtualdub-fr.org || (build 2550/release)
Библиотека кодирования : VirtualDubMod build 2550/release

Видео
Идентификатор : 0
Формат : MPEG-4 Visual
Профиль формата : Advanced Simple@L5
Параметр BVOP формата : 1
Параметр QPel формата : Нет
Параметр GMC формата : Без точки перехода
Параметр матрицы формата : Выборочная
Идентификатор кодека : XVID
Идентификатор кодека/Подсказка : XviD
Продолжительность : 1 ч. 56 м.
Битрейт : 1593 Кбит/сек
Ширина : 720 пикселей
Высота : 400 пикселей
Соотношение сторон : 16:9
Частота кадров : 25,000 кадров/сек
Цветовое пространство : YUV
Субдискретизация насыщенности : 4:2:0
Битовая глубина : 8 бит
Тип развёртки : Прогрессивная
Метод сжатия : С потерями
Бит/(Пиксели*Кадры) : 0.221
Размер потока : 1,29 Гбайт (89%)
Библиотека кодирования : XviD 65

Аудио
Идентификатор : 1
Формат : AC-3
Формат/Информация : Audio Coding 3
Расширение режима : CM (complete main)
Параметр Endianness формата : Big
Идентификатор кодека : 2000
Продолжительность : 1 ч. 56 м.
Вид битрейта : Постоянный
Битрейт : 192 Кбит/сек
Каналы : 2 канала
Расположение каналов : Front: L R
Частота : 48,0 КГц
Битовая глубина : 16 бит
Метод сжатия : С потерями
Размер потока : 160 Мбайт (11%)
Выравнивание : Разделение по промежуткам
Продолжительность промежутка : 40 мс. (1,00 видеокадр)
Время предзагрузки промежутка : 500 мс.

Раздача от:



Вернуться к началу
 Профиль Отправить личное сообщение  
 
   Похожие торренты   Автор   Торрент   Размер 
В этой теме нет новых непрочитанных сообщений. Почтальон / The Postman [фантастика, боевик, драма, 1997] BDRip-AVC, Dub

salma3

100 | 47

1.45 ГБ

В этой теме нет новых непрочитанных сообщений. Почтальон / The Postman [фантастика, боевик, драма, 1997] HDRip, Dub

salma3

19 | 2

1.46 ГБ

В этой теме нет новых непрочитанных сообщений. Почтальон / The Postman [фантастика, боевик, драма, 1997] HDRip, Dub

salma3

41 | 14

2.18 ГБ

В этой теме нет новых непрочитанных сообщений. Почтальон / The Postman [фантастика, боевик, драма, 1997] BDRip-HEVC 1080p, Dub

salma3

21 | 7

9.03 ГБ

В этой теме нет новых непрочитанных сообщений. Убить дважды / Убивай снова и снова / Kill and Kill Again [Боевик, драма, 1981] BDRip 1080p, Avo

salma3

12 | 11

9.25 ГБ

В этой теме нет новых непрочитанных сообщений. Звонки / Rings [ужасы, драма, 2017] BDRip, Dub+Sub [Лицензия ]

salma3

619 | 104

1.46 ГБ

В этой теме нет новых непрочитанных сообщений. Звонки / Rings [ужасы, драма, 2017] BDRip 1080p, Dub+Sub [Лицензия]

salma3

484 | 126

10.89 ГБ


Начать новую тему Ответить на тему  [ 1 сообщение ] 




Для Мосгорсуда, Роскомнадзора и рекламодателей:: mosgorsud-torrent[собачка]yandex.ru
cron