Торрент файл
скачать торрент магнет ссылка Добавлен: 19 авг 2013, 10:11
Размер: 1.46 ГБ
Сидеров: 0
Личеров: 2
Статус: (salma3)
Автор

СообщениеДобавлено: 19 авг 2013, 10:11 

Не в сети
Зам. Админа
Аватара пользователя
Дата регистрации:
02 дек 2010, 12:39
Спасибо: 12561 / 214
Сообщения: 28070
Год выпуска: 2011
Страна: Германия, США
Киностудия: GNK Productions, Haut et Court...

Жанр: драма, комедия
Продолжительность: 01:26:54

Перевод: Профессиональный (многоголосый)
Субтитры: нет
Оригинальная аудиодорожка: нет

Режиссер: Миранда Джулай / Miranda July

В ролях: Хамиш Линклэйтер, Миранда Джулай, Дэвид Уоршофски, Изабелла Акрес, Джо Паттерлик, Анджела Тримбур, Мэри Пассери, Элла, Кэтлин Гати, Клемент Сейнт-Джордж...

Описание: Когда пара решает взять бездомного кота, их жизненная перспектива меняется, буквально искажая пространство и время и проверяя их веру в себя и друг друга на прочность.







Исходник: DVD5 R5
Качество: DVDRip
Формат: AVI
Видео: 720x384 (1.85:1), 25.000 fps, XViD ~ 2199 kbps avg, 0.318 bit/pixel
Аудио: 48 kHz, АС3 2 ch, 192 kbps, русский

Раздача от:
Общее
Полное имя : Budushee.2011.P.DVDRip_[Youtracker]_by_avproh.avi
Формат : AVI
Формат/Информация : Audio Video Interleave
Размер файла : 1,46 Гбайт
Продолжительность : 1 ч. 26 м.
Общий поток : 2400 Кбит/сек
Программа кодирования : VirtualDubMod 1.5.10.3 | http://www.virtualdub-fr.org || (build 2550/release)
Библиотека кодирования : VirtualDubMod build 2550/release

Видео
Идентификатор : 0
Формат : MPEG-4 Visual
Профиль формата : Advanced Simple@L5
Параметр BVOP формата : 1
Параметр QPel формата : Нет
Параметр GMC формата : Без точки перехода
Параметр матрицы формата : Выборочная
Идентификатор кодека : XVID
Идентификатор кодека/Подсказка : XviD
Продолжительность : 1 ч. 26 м.
Битрейт : 2199 Кбит/сек
Ширина : 720 пикселей
Высота : 384 пикселя
Соотношение сторон : 1,85:1
Частота кадров : 25,000 кадров/сек
Цветовое пространство : YUV
Субдискретизация насыщенности : 4:2:0
Битовая глубина : 8 бит
Тип развёртки : Прогрессивная
Метод сжатия : С потерями
Бит/(Пиксели*Кадры) : 0.318
Размер потока : 1,33 Гбайт (92%)
Библиотека кодирования : XviD 65

Аудио
Идентификатор : 1
Формат : AC-3
Формат/Информация : Audio Coding 3
Расширение режима : CM (complete main)
Параметр Endianness формата : Big
Идентификатор кодека : 2000
Продолжительность : 1 ч. 26 м.
Вид битрейта : Постоянный
Битрейт : 192 Кбит/сек
Каналы : 2 канала
Расположение каналов : Front: L R
Частота : 48,0 КГц
Битовая глубина : 16 бит
Метод сжатия : С потерями
Размер потока : 119 Мбайт (8%)
Выравнивание : Разделение по промежуткам
Продолжительность промежутка : 40 мс. (1,00 видеокадр)
Время предзагрузки промежутка : 500 мс.



http://rutor.org/torrent/176449

Звук: http://screenshotcomparison.com/comparison/35942 - у конкурента звук 320 кбпс, у меня 192, при этом у него частотка хуже... Лицензионный звук пока вышел только на DVD5 R5, где у него 192 кбпс. В конце, минут 5, звук у конкурента отсутствует вообще.

Видео: http://screenshotcomparison.com/comparison/35942 - у конкурента сильно обкропано по бокам и четкость кадра ниже.




реклама партнёра


Вернуться к началу
 Профиль  
 
   Похожие торренты   Автор   Торрент   Размер 
В этой теме нет новых непрочитанных сообщений. Назад в будущее: Трилогия / Back to the Future Trilogy [фантастика, комедия, приключения, 1985-1990] BDRip, Dub

salma3

433 | 39

4.37 ГБ

В этой теме нет новых непрочитанных сообщений. Между прошлым и будущим / Будущее прошедшее / Future Past [фантастика, 1987] TVRip, Mvo

salma3

1 | 1

1.43 ГБ

В этой теме нет новых непрочитанных сообщений. Будущее / L'avenir (Миа Хансен-Лёв /Mia Hansen-Love) [2016г., Франция, драма, DVDRip] Sub

Alfredovich

24 | 8

1.37 ГБ

В этой теме нет новых непрочитанных сообщений. Люди Икс: Дни минувшего будущего / X-Men: Days of Future Past [фантастика, фэнтези, боевик, приключения, 2014] HDRip-AVC, Dub+Sub [Лицензия]

Dracon

181 | 4

2.04 ГБ

В этой теме нет новых непрочитанных сообщений. Люди Икс: Дни минувшего будущего / X-Men: Days of Future Past [фантастика, фэнтези, боевик, приключения, 2014] BDRip, Dub [Лицензия]

Dracon

3283 | 113

2.18 ГБ

В этой теме нет новых непрочитанных сообщений. Люди Икс: Дни минувшего будущего / X-Men: Days of Future Past [фантастика, фэнтези, боевик, приключения, 2014] BDRip 1080p, Dub+Sub [Лицензия]

Dracon

189 | 10

15.12 ГБ

В этой теме нет новых непрочитанных сообщений. Люди Икс: Дни минувшего будущего / X-Men: Days of Future Past [фантастика, фэнтези, боевик, приключения, 2014] BDRip 720p, Dub+Sub [Лицензия]

Dracon

320 | 15

7.09 ГБ


Начать новую тему Ответить на тему  [ 1 сообщение ] 




Для Мосгорсуда, Роскомнадзора и рекламодателей:: mosgorsud-torrent[собачка]yandex.ru