Торрент файл
скачать торрент магнет ссылка Добавлен: 13 авг 2013, 15:16
Размер: 1.98 ГБ
Сидеров: 136
Личеров: 6
Автор

СообщениеДобавлено: 13 авг 2013, 15:16 

Не в сети
Супермодератор
Аватара пользователя
Дата регистрации:
15 фев 2012, 16:44
Возраст: 27
Спасибо: 5134 / 2089
Сообщения: 17379

Информация о фильме

Название: Битва проклятых
Оригинальное название: Battle of the Damned
Год выпуска: 2013
Жанр: Фантастика, боевик, приключения
Выпущено: США, Сингапур, Boku Films, BOTD Productions, Compound B, Vividthree Productions
Режиссер: Кристофер Хаттон
В ролях: Дольф Лундгрен, Мэтт Доран, Дэвид Филд, Эстебан Куето, Лидия Лук, Мелани Занетти, Ода Мария, Джен Санг Отербридж, Джефф Прюитт, Бродус Мэттисон

О фильме: Согласно сюжету, где-то на краю цивилизации тестовая лаборатория лежит в руинах. Из-за досадной ошибки службы безопасности лаборатории произошла катастрофа. Огромное число людей в одночасье превратились в зомби. И лишь небольшая кучка выживших, возглавляемая отважным солдатом Максом Гатлингом, с оружием в руках пробирается сквозь армию мутировавших. Вроде бы, пока все в духе традиционных зомби-хорроров… Однако нашим героям неведома другая смертельная опасность. Из-за все той же аварии на свободе оказались прототипы военных роботов. Хорошо вооруженные, бронированные и чрезвычайно опасные машины по замыслу их создателей должны были в случае непредвиденной ситуации начать немедленную борьбу с живыми мертвецами. Но роботы не были доведены до ума и оказались неспособны отличать обычных людей от зомби.



Файл

Качество: BDRip (AVC)
Видео: MPEG-4 AVC, 2310 Кбит/с, 1024x576, 23.976 кадр/с
Аудио: Русский, английский (AC3, 6 ch, 448 Кбит/с)
Размер: 1.98 ГБ
Продолжительность: 01:28:37
Перевод: Любительский двухголосый [сладкая парочка]
Субтитры: Нет

Общее
Полное имя : C:Users-DownloadsBattle.of.the.Damned.2013.x264.BDRip.(AVC).ExKinoRay.mkv
Формат : Matroska
Размер файла : 1,98 Гбайт
Продолжительность : 1 ч. 28 м.
Общий поток : 3206 Кбит/сек
Название фильма : Битва проклятых. 2013. Rip by: ollan
Дата кодирования : UTC 2013-08-08 19:00:45
Программа кодирования : mkvmerge v5.6.0 ('Kenya Kane') built on May 27 2012 16:44:04
Библиотека кодирования : libebml v1.2.3 + libmatroska v1.3.0

Видео
Идентификатор : 1
Формат : AVC
Формат/Информация : Advanced Video Codec
Профиль формата : High@L4.1
Параметр CABAC формата : Да
Параметр ReFrames формата : 9 кадров
Режим смешивания : Container profile=Unknown@4.1
Идентификатор кодека : V_MPEG4/ISO/AVC
Продолжительность : 1 ч. 28 м.
Битрейт : 2246 Кбит/сек
Номинальный битрейт : 2310 Кбит/сек
Ширина : 1024 пикселей
Высота : 576 пикселей
Соотношение сторон : 16:9
Частота кадров : 23,976 кадра/сек
Разрешение : 24 бит
Колориметрия : 4:2:0
Тип развёртки : Прогрессивная
Бит/(Пиксели*Кадры) : 0.159
Размер потока : 1,39 Гбайт (70%)
Библиотека кодирования : x264 core 125 r2200 999b753
Настройки программы : cabac=1 / ref=9 / deblock=1:-2:-2 / analyse=0x3:0x133 / me=umh / subme=11 / psy=1 / psy_rd=1.00:0.00 / mixed_ref=1 / me_range=32 / chroma_me=1 / trellis=2 / 8x8dct=1 / cqm=0 / deadzone=21,11 / fast_pskip=0 / chroma_qp_offset=-2 / threads=12 / lookahead_threads=2 / sliced_threads=0 / nr=0 / decimate=0 / interlaced=0 / bluray_compat=0 / constrained_intra=0 / bframes=9 / b_pyramid=2 / b_adapt=1 / b_bias=0 / direct=3 / weightb=1 / open_gop=0 / weightp=2 / keyint=240 / keyint_min=23 / scenecut=40 / intra_refresh=0 / rc_lookahead=80 / rc=2pass / mbtree=1 / bitrate=2310 / ratetol=1.0 / qcomp=0.60 / qpmin=0 / qpmax=69 / qpstep=4 / cplxblur=20.0 / qblur=0.5 / ip_ratio=1.40 / aq=1:1.00

Аудио #1
Идентификатор : 2
Формат : AC-3
Формат/Информация : Audio Coding 3
Идентификатор кодека : A_AC3
Продолжительность : 1 ч. 28 м.
Вид битрейта : Постоянный
Битрейт : 448 Кбит/сек
Каналы : 6 каналов
Расположение каналов : Front: L C R, Surround: L R, LFE
Частота : 48,0 КГц
Размер потока : 284 Мбайт (14%)
Заголовок : Любительский двухголосый (сладкая парочка)
Язык : Russian

Аудио #2
Идентификатор : 3
Формат : AC-3
Формат/Информация : Audio Coding 3
Идентификатор кодека : A_AC3
Продолжительность : 1 ч. 28 м.
Вид битрейта : Постоянный
Битрейт : 448 Кбит/сек
Каналы : 6 каналов
Расположение каналов : Front: L C R, Surround: L R, LFE
Частота : 48,0 КГц
Размер потока : 284 Мбайт (14%)





Релиз от: Rip by:




реклама партнёра


Вернуться к началу
 Профиль Отправить личное сообщение  
 
   Похожие торренты   Автор   Торрент   Размер 
В этой теме нет новых непрочитанных сообщений. Битва за Скайарк / Battle for Skyark [фантастика, боевик, приключения, семейный, 2015] BDRip 720p, Avo

salma3

419 | 27

4.76 ГБ

В этой теме нет новых непрочитанных сообщений. Деревня проклятых / Village of the Damned [ужасы, фантастика, триллер, 1995] BDRip 720p, Mvo+Dvo

salma3

56 | 8

4.93 ГБ

В этой теме нет новых непрочитанных сообщений. Инопланетное вторжение: Битва за Лос-Анджелес / Battle Los Angeles [Фантастика, Боевик, 2011] BDRip, Avo [Гаврилов]

salma3

0 | 5

1.46 ГБ

В этой теме нет новых непрочитанных сообщений. Битва за Скайарк / Battle for Skyark (Саймон Хунг) [Фантастика, Боевик, Приключения, Семейный, 2015] HDRip, avo

Dracon

3 | 0

1.37 ГБ

В этой теме нет новых непрочитанных сообщений. Битва в Сиэтле / Battle in Seattle [Боевик, драма, 2007] BDRip 720р, Avo+Dvo+Sub

salma3

93 | 18

5.06 ГБ

В этой теме нет новых непрочитанных сообщений. Битва воина / Battle Warrior / Nuk soo dane song kram [ужасы, боевик, приключения, 1996] DVDRip, Avo

salma3

56 | 7

1.46 ГБ

В этой теме нет новых непрочитанных сообщений. Хоббит: Битва пяти воинств / The Hobbit: The Battle of the Five Armies (Питер Джексон) [Фэнтези, Приключения, 2014] BDRip, Dub [Лицензия]

Dracon

808 | 85

2.91 ГБ


Начать новую тему Ответить на тему  [ 1 сообщение ] 




Для Мосгорсуда, Роскомнадзора и рекламодателей:: mosgorsud-torrent[собачка]yandex.ru