Торрент файл
скачать торрент магнет ссылка Добавлен: 11 авг 2013, 14:33
Размер: 1.46 ГБ
Сидеров: 251
Личеров: 11
Статус: (salma3)
Автор

СообщениеДобавлено: 11 авг 2013, 14:33 

Не в сети
Супермодератор
Аватара пользователя
Дата регистрации:
15 фев 2012, 16:44
Возраст: 28
Спасибо: 6569 / 2137
Сообщения: 43761
Пришельцы в Америке / Just Visiting

Год выпуска: 2001
Страна: CША, Франция
Жанр: Комедия
Продолжительность: 01:24:26
Перевод: Профессиональный (полное дублирование)
Русские субтитры: нет

Режиссер: Жан-Мари Пуарэ / Jean-Marie Poire

В ролях: Жан Рено, Кристиан Клавье, Кристина Эпплгэйт, Мэттью Росс, Тэра Рид, Бриджитт Уилсон

Описание: Два чудака из средневековой Франции, виконт Тибо и его слуга Андре, покорившие зрителей всего мира в легендарных комедиях "Коридоры времени" и "Коридоры времени 2", снова на экране! На этот раз двум героям предстоит отправиться в современные Соединенные Штаты Америки, чтобы в результате спасти от смерти возлюбленную Тибо Розалинд. В Штатах благородный рыцарь и его слуга попадают в такое количество сумасбродных и безумно смешных ситуаций, что их хватило бы на целую дюжину комедий...



Качество: DVDRip
Формат: AVI
Видео кодек: XviD
Аудио кодек: AC3
Видео: 720x304 (2.37:1), 25 fps, XviD build 50 ~2018 kbps avg, 0.37 bit/pixel
Аудио: 48 kHz, AC3 Dolby Digital, 3/2 (L,C,R,l,r) + LFE ch, ~448 kbps

Раздача от:


D:Мои рипыJUST_VISITING_DVDRip.1.45gb.by_dexter_lex.avi
General
Complete name : D:Мои рипыJUST_VISITING_DVDRip.1.45gb.by_dexter_lex.avi
Format : AVI
Format/Info : Audio Video Interleave
File size : 1.46 GiB
Duration : 1h 24mn
Overall bit rate : 2 476 Kbps
Writing application : VirtualDubMod 1.5.10.3 | http://www.virtualdub-fr.org || (build 2550/release)
Writing library : VirtualDubMod build 2550/release
Video #0
ID : 0
Format : MPEG-4 Visual
Format profile : Advanced Simple@L5
Format settings, BVOP : 1
Format settings, QPel : No
Format settings, GMC : No warppoints
Format settings, Matrix : Custom
Codec ID : XVID
Codec ID/Hint : XviD
Duration : 1h 24mn
Bit rate : 2 019 Kbps
Width : 720 pixels
Height : 304 pixels
Display aspect ratio : 2.35:1
Frame rate : 25.000 fps
Color space : YUV
Chroma subsampling : 4:2:0
Bit depth : 8 bits
Scan type : Progressive
Compression mode : Lossy
Bits/(Pixel*Frame) : 0.369
Stream size : 1.19 GiB (82%)
Writing library : XviD 1.2.1 (UTC 2008-12-04)
Audio #1
ID : 1
Format : AC-3
Format/Info : Audio Coding 3
Mode extension : CM (complete main)
Codec ID : 2000
Duration : 1h 24mn
Bit rate mode : Constant
Bit rate : 448 Kbps
Channel(s) : 6 channels
Channel positions : Front: L C R, Side: L R, LFE
Sampling rate : 48.0 KHz
Bit depth : 16 bits
Compression mode : Lossy
Stream size : 270 MiB (18%)
Alignment : Split accross interleaves
Interleave, duration : 40 ms (1.00 video frame)
Interleave, preload duration : 500 ms





реклама партнёра


Вернуться к началу
 Профиль Отправить личное сообщение  
 
   Похожие торренты   Автор   Торрент   Размер 
В этой теме нет новых непрочитанных сообщений. Пришельцы в Америке / Just Visiting [Фантастика, Фэнтези, Комедия, 2001] BDRip-AVC, Dub

salma3

29 | 1

2.43 ГБ

В этой теме нет новых непрочитанных сообщений. Пришельцы в Америке / Just Visiting [Фантастика, комедия, приключения, 2001] BDRip 720р, Dub+Avo+Sub

salma3

13 | 4

8.97 ГБ

В этой теме нет новых непрочитанных сообщений. Пришельцы в Америке / Just Visiting [Фантастика, комедия, приключения, 2001] BDRip 720р, Dub+Avo+Sub

salma3

127 | 13

4.38 ГБ

В этой теме нет новых непрочитанных сообщений. Пришельцы 3: Взятие Бастилии / Les Visiteurs: La Révolution [комедия, 2016] HDRip, Dub [Лицензия]

salma3

579 | 260

1.46 ГБ

В этой теме нет новых непрочитанных сообщений. Пришельцы 3: Взятие Бастилии / Les Visiteurs: La Revolution [Комедия, 2016] HDRip-AVC, Dub [iTunes]

salma3

98 | 30

1.49 ГБ

В этой теме нет новых непрочитанных сообщений. Пришельцы 3: Взятие Бастилии / Les Visiteurs: La Révolution [Комедия, 2016] BDRip 1080p, Dub [iTunes]

marya111

163 | 8

7.95 ГБ

В этой теме нет новых непрочитанных сообщений. Пришельцы / Les Visiteurs [фантастика, фэнтези, комедия, 1993] BDRip 1080p, Dub+3Mvo+2Avo+Sub

salma3

55 | 7

10.9 ГБ


Начать новую тему Ответить на тему  [ 1 сообщение ] 




Для Мосгорсуда, Роскомнадзора и рекламодателей:: mosgorsud-torrent[собачка]yandex.ru