Торрент файл
скачать торрент магнет ссылка Добавлен: 11 авг 2013, 09:59
Размер: 2.94 ГБ
Сидеров: 53
Личеров: 7
Автор

СообщениеДобавлено: 11 авг 2013, 09:59 

Не в сети
Зам. Админа
Аватара пользователя
Дата регистрации:
02 дек 2010, 12:39
Спасибо: 12461 / 214
Сообщения: 27968


Год выпуска: 2012
Жанр: Боевик, криминал
Режиссер: Чхве Дон Хун
В ролях: Ким Юн Сок, И Чон Чжэ, О Дар Су, Саймон Ям, Чон Чи Хён, Ким Хэ Сук, Анжелика Ли, Ким Хё Су

О фильме: Интернациональная команда воров экстра-класса планирует грандиозное ограбление в Макао. Все участники банды — опытные профессионалы, бывали в переделках и способны эффективно работать в самых опасных и стрессовых условиях. Однако, несмотря на то, что все роли в безупречном плане преступления четко определены, многие из участников расклада совсем не собираются довольствоваться своей долей и коварно намереваются умыкнуть весь куш. К тому же один из них — полицейский «под прикрытием»…



Страна: Южная Корея
Студия: CJ Venture Investment, KM Culture Co., Michigan Venture Capital
Продолжительность: 02:15:54
Перевод: Любительский двухголосый

Кодек: х264
Качество: BDRip (AVC)
Видео: MPEG-4 AVC, 2200 Кбит/с, 1024x434, 24.000 кадр/с
Аудио #1: Русский (AC3, 6 ch, 448 Кбит/с) / Любительский двухголосый
Аудио #2: Корейский (AC3, 6 ch, 448 Кбит/с)

Семпл




x264 [info]: frame I:1843 Avg QP:15.44 size: 64299
x264 [info]: frame P:50950 Avg QP:18.84 size: 22112
x264 [info]: frame B:142893 Avg QP:20.29 size: 6969
_________________________________________________________________________________
Общее
Уникальный идентификатор : 235244670340573356633388117084693008823 (0xB0FA79B97E1687D7B603BCE21E2711B7)
Полное имя : D:Mои раздачиVory.2012.BDRip.(AVC)-MediaClub.mkv
Формат : Matroska
Версия формата : Version 4 / Version 2
Размер файла : 2,94 Гбайт
Продолжительность : 2 ч. 15 м.
Общий поток : 3097 Кбит/сек
Название фильма : -=MediaClub-kaspr=-
Дата кодирования : UTC 2013-08-10 06:29:16
Программа кодирования : mkvmerge v6.3.0 ('You can't stop me!') built on Jul 19 2013 16:27:38
Библиотека кодирования : libebml v1.3.0 + libmatroska v1.4.1

Видео
Идентификатор : 1
Формат : AVC
Формат/Информация : Advanced Video Codec
Профиль формата : High@L4.1
Параметр CABAC формата : Да
Параметр ReFrames формата : 9 кадров
Идентификатор кодека : V_MPEG4/ISO/AVC
Продолжительность : 2 ч. 15 м.
Битрейт : 2200 Кбит/сек
Ширина : 1024 пикселя
Высота : 434 пикселя
Соотношение сторон : 2,35:1
Режим частоты кадров : Постоянный
Частота кадров : 24,000 кадра/сек
Цветовое пространство : YUV
Субдискретизация насыщенности : 4:2:0
Битовая глубина : 8 бит
Тип развёртки : Прогрессивная
Бит/(Пиксели*Кадры) : 0.206
Размер потока : 2,03 Гбайт (69%)
Заголовок : -=MediaClub-kaspr=-
Библиотека кодирования : x264 core 130 r2273 b3065e6
Настройки программы : cabac=1 / ref=9 / deblock=1:-3:-3 / analyse=0x3:0x133 / me=umh / subme=11 / psy=1 / psy_rd=1.00:0.20 / mixed_ref=1 / me_range=32 / chroma_me=1 / trellis=2 / 8x8dct=1 / cqm=0 / deadzone=21,11 / fast_pskip=0 / chroma_qp_offset=-3 / threads=12 / lookahead_threads=3 / sliced_threads=0 / nr=0 / decimate=0 / interlaced=0 / bluray_compat=0 / constrained_intra=0 / bframes=10 / b_pyramid=2 / b_adapt=2 / b_bias=0 / direct=3 / weightb=1 / open_gop=0 / weightp=2 / keyint=240 / keyint_min=23 / scenecut=40 / intra_refresh=0 / rc=2pass / mbtree=0 / bitrate=2200 / ratetol=1.0 / qcomp=0.60 / qpmin=0 / qpmax=69 / qpstep=4 / cplxblur=20.0 / qblur=0.5 / ip_ratio=1.40 / pb_ratio=1.30 / aq=1:1.00
Default : Да
Forced : Да

Аудио #1
Идентификатор : 2
Формат : AC-3
Формат/Информация : Audio Coding 3
Расширение режима : CM (complete main)
Параметр Endianness формата : Big
Идентификатор кодека : A_AC3
Продолжительность : 2 ч. 15 м.
Вид битрейта : Постоянный
Битрейт : 448 Кбит/сек
Каналы : 6 каналов
Расположение каналов : Front: L C R, Side: L R, LFE
Частота : 48,0 КГц
Битовая глубина : 16 бит
Метод сжатия : С потерями
Размер потока : 435 Мбайт (14%)
Заголовок : L2
Язык : Russian
Default : Да
Forced : Да

Аудио #2
Идентификатор : 3
Формат : AC-3
Формат/Информация : Audio Coding 3
Расширение режима : CM (complete main)
Параметр Endianness формата : Big
Идентификатор кодека : A_AC3
Продолжительность : 2 ч. 15 м.
Вид битрейта : Постоянный
Битрейт : 448 Кбит/сек
Каналы : 6 каналов
Расположение каналов : Front: L C R, Side: L R, LFE
Частота : 48,0 КГц
Битовая глубина : 16 бит
Метод сжатия : С потерями
Размер потока : 435 Мбайт (14%)
Заголовок : Оригинал
Язык : Korean
Default : Нет
Forced : Нет

Меню
00:00:00.000 : en:Chapter 01
00:05:00.000 : en:Chapter 02
00:10:00.000 : en:Chapter 03
00:15:00.000 : en:Chapter 04
00:20:00.000 : en:Chapter 05
00:25:00.000 : en:Chapter 06
00:30:00.000 : en:Chapter 07
00:35:00.000 : en:Chapter 08
00:40:00.000 : en:Chapter 09
00:45:00.000 : en:Chapter 10
00:50:00.000 : en:Chapter 11
00:55:00.000 : en:Chapter 12
01:00:00.000 : en:Chapter 13
01:05:00.000 : en:Chapter 14
01:10:00.000 : en:Chapter 15
01:15:00.000 : en:Chapter 16
01:20:00.000 : en:Chapter 17
01:25:00.000 : en:Chapter 18
01:30:00.000 : en:Chapter 19
01:35:00.000 : en:Chapter 20
01:40:00.000 : en:Chapter 21
01:45:00.000 : en:Chapter 22
01:50:00.000 : en:Chapter 23
01:55:00.000 : en:Chapter 24
02:00:00.000 : en:Chapter 25
02:05:00.000 : en:Chapter 26
02:10:00.000 : en:Chapter 27
02:15:00.000 : en:Chapter 28

Релиз:




реклама партнёра


Вернуться к началу
 Профиль  
 
   Похожие торренты   Автор   Торрент   Размер 
В этой теме нет новых непрочитанных сообщений. Воры / The Thieves / Dodookdeul [боевик, криминал, 2012] HDRip, Mvo [НТВ+]

Dracon

34 | 3

2.18 ГБ

В этой теме нет новых непрочитанных сообщений. Beggars & Thieves - Beggars & Thieves [1990, Glam Hard Rock, MP3]

PriZraK

0 | 1

121.61 МБ

В этой теме нет новых непрочитанных сообщений. Cavo - Thick As Thieves [2012, Alt. Rock, MP3]

PriZraK

0 | 1

105.08 МБ

В этой теме нет новых непрочитанных сообщений. Caravan Of Thieves - The Funhouse [2012, Indie Rock, MP3]

PriZraK

0 | 1

103.81 МБ

В этой теме нет новых непрочитанных сообщений. Geoff Tate - Kings & Thieves [2012, Hard Rock, MP3]

PriZraK

0 | 1

121.58 МБ

В этой теме нет новых непрочитанных сообщений. Защитник / Safe [боевик, триллер, криминал, 2012] BDRip, Avo

salma3

4 | 1

1.46 ГБ

В этой теме нет новых непрочитанных сообщений. Защитник / Safe [боевик, триллер, криминал, 2012] BDRip-AVC, Dub

salma3

32 | 1

2.18 ГБ


Начать новую тему Ответить на тему  [ 1 сообщение ] 




Для Мосгорсуда, Роскомнадзора и рекламодателей:: mosgorsud-torrent[собачка]yandex.ru