Торрент файл
скачать торрент магнет ссылка Добавлен: 10 авг 2013, 23:55
Размер: 1.46 ГБ
Сидеров: 29
Личеров: 5
Статус: (salma3)
Автор

СообщениеДобавлено: 10 авг 2013, 23:55 

В сети
Супермодератор
Аватара пользователя
Дата регистрации:
15 фев 2012, 16:44
Возраст: 27
Спасибо: 5143 / 2090
Сообщения: 17501

Слепое правосудие / Blind Justice

Год выхода: 1994
Жанр: боевик, вестерн
Режиссер: Ричард Спенс / Richard Spence

В ролях: Арманд Ассанте / Armand Assante, Элизабет Шу / Elisabeth Shue, Роберт Дави / Robert Davi, Адам Болдуин / Adam Baldwin, Йен МакЭлхинни / Ian McElhinney, Дэнни Нуччи / Danny Nucci, М. К. Гейни / M.C. Gainey, Титус Уэлливер / Titus Welliver, Джек Блэк / Jack Black, Майкл О’Нил / Michael O'Neill, Дуглас Робертс / Douglas Roberts,


О фильме:
Погруженный в свой собственный Ад, ослепший во время войны стрелок Кэнан, скитаясь по Южным Территориям, сталкивается с бандой Алакрана и сержантом армии США Хастингом, вступившими в смертельную схватку за груз серебра. Слепец, не принимаемый в расчет ни той, ни другой стороной, железной рукой вершит Правосудие...




Страна: США
Продолжительность: 01:28:01
Перевод: Профессиональный (двухголосый закадровый) [НТВ+]

Файл
Качество: DVDRip
Формат файла: AVI
Видео кодек: XviD
Аудио кодек: AC3
Видео: 720x544, 23,976 fps, 2164 kbps
Аудио: AC3, 2 ch, 192 Kbps


Общее
Полное имя : Blind_Justice_1994_DVDRip.avi
Формат : AVI
Формат/Информация : Audio Video Interleave
Размер файла : 1,46 Гбайт
Продолжительность : 1 ч. 28 м.
Общий поток : 2365 Кбит/сек
Программа кодирования : VirtualDubMod 1.5.10.3 | http://www.virtualdub-fr.org || (build 2550/release)
Библиотека кодирования : VirtualDubMod build 2550/release

Видео
Идентификатор : 0
Формат : MPEG-4 Visual
Профиль формата : Advanced Simple@L5
Параметр BVOP формата : 1
Параметр QPel формата : Нет
Параметр GMC формата : Без точки перехода
Параметр матрицы формата : Выборочная
Идентификатор кодека : XVID
Идентификатор кодека/Подсказка : XviD
Продолжительность : 1 ч. 28 м.
Битрейт : 2164 Кбит/сек
Ширина : 720 пикс.
Высота : 544 пикс.
Соотношение сторон : 4:3
Частота кадров : 23,976 кадр/сек
Цветовое пространство : YUV
Подвыборка цветности : 4:2:0
Битовая глубина : 8 бит
Тип развёртки : Прогрессивная
Метод сжатия : С потерями
Бит/(Пиксели*Кадры) : 0.230
Размер потока : 1,33 Гбайт (91%)
Библиотека кодирования : XviD 73

Аудио
Идентификатор : 1
Формат : AC-3
Формат/Информация : Audio Coding 3
Расширение режима : CM (complete main)
Идентификатор кодека : 2000
Продолжительность : 1 ч. 28 м.
Вид битрейта : Постоянный
Битрейт : 192 Кбит/сек
Канал(ы) : 2 канала(ов)
Расположение каналов : Front: L R
Частота : 48,0 КГц
Битовая глубина : 16 бит
Метод сжатия : С потерями
Размер потока : 121 Мбайт (8%)
Выравнивание : Разделение по промежуткам
Продолжительность промежутка : 42 мс. (1,00 видеокадр)
Время предзагрузки промежутка : 500 ms


Релиз от: Leon-masl




реклама партнёра


Вернуться к началу
 Профиль Отправить личное сообщение  
 
   Похожие торренты   Автор   Торрент   Размер 
В этой теме нет новых непрочитанных сообщений. Сладкое правосудие / Sweet Justice [Боевик, 1992] DVDRip, Avo

salma3

4 | 1

1.33 ГБ

В этой теме нет новых непрочитанных сообщений. Правосудие Стила / Steele Justice [боевик, 1987] HDTVRip, Avo

salma3

1 | 0

1.42 ГБ

В этой теме нет новых непрочитанных сообщений. Джек Рид: В поисках справедливости / Jack Reed: A Search for Justice [драма, криминал, детектив, 1994] DVDRip, Avo

salma3

10 | 3

1.49 ГБ

В этой теме нет новых непрочитанных сообщений. Blind Gypsy - Never Coming Home [1994, Hard Rock, MP3]

PriZraK

0 | 2

101.37 МБ

В этой теме нет новых непрочитанных сообщений. Джек - Молния / Lightning Jack [комедия, вестерн, 1994] DVDRip, Avo

salma3

38 | 2

1.38 ГБ

В этой теме нет новых непрочитанных сообщений. Вместо жены / The Substitute Wife [драма, мелодрама, вестерн, 1994] DVDRip, Mvo

salma3

31 | 9

1.49 ГБ

В этой теме нет новых непрочитанных сообщений. Жестокая справедливость / Hard Justice [Боевик, 1995] DVDRip, Mvo+Avo

salma3

3 | 7

1.45 ГБ


Начать новую тему Ответить на тему  [ 1 сообщение ] 




Для Мосгорсуда, Роскомнадзора и рекламодателей:: mosgorsud-torrent[собачка]yandex.ru