Торрент файл
скачать торрент магнет ссылка Добавлен: 10 авг 2013, 15:37
Размер: 2.44 ГБ
Сидеров: 39
Личеров: 3
Автор

СообщениеДобавлено: 10 авг 2013, 15:37 

Не в сети
Зам. Админа
Аватара пользователя
Дата регистрации:
02 дек 2010, 12:39
Спасибо: 12623 / 214
Сообщения: 28012


Год выпуска: 2013
Жанр: Боевик
Выпущено: Великобритания, Vertigo Films
Режиссер: Фэррен Блэкберн
В ролях: Чарли Бьюли, Клайв Стэнден, Джеймс Космо, Эллиот Кауэн, Глайнис Барбер, Айван Кэй, Майкл Джибсон, Гай Флэнеган, Тео Барклем-Биггз, Александра Доулинг
О фильме: Страстный молодой человек превращается в жестокого воина, во время своих путешествий в поисках давно потерянного брата.

Качество: BDRip (AVC)
Видео: MPEG-4 AVC, 2250 Кбит/с, 1024x426, 23.976 кадр/с
Аудио: Русский (AC3, 6 ch, 448 Кбит/с), русский (AC3, 6 ch, 384 Кбит/с), английский (AC3, 6 ch, 448 Кбит/с)
Размер: 2.44 ГБ
Продолжительность: 01:38:49
Перевод: Любительский двухголосый, любительский одноголосый [den904]
Субтитры: Русские, английские

Общее
Полное имя : C:Users-DownloadsMolot.bogov.2013.x264.BDRip.(AVC).ExKinoRay.mkv
Формат : Matroska
Размер файла : 2,44 Гбайт
Продолжительность : 1 ч. 38 м.
Общий поток : 3529 Кбит/сек
Название фильма : Молот богов. 2013. Rip by: ollan
Дата кодирования : UTC 2013-08-10 09:31:12
Программа кодирования : mkvmerge v5.6.0 ('Kenya Kane') built on May 27 2012 16:44:04
Библиотека кодирования : libebml v1.2.3 + libmatroska v1.3.0

Видео
Идентификатор : 1
Формат : AVC
Формат/Информация : Advanced Video Codec
Профиль формата : High@L4.1
Параметр CABAC формата : Да
Параметр ReFrames формата : 9 кадров
Режим смешивания : Container profile=Unknown@4.1
Идентификатор кодека : V_MPEG4/ISO/AVC
Продолжительность : 1 ч. 38 м.
Битрейт : 2179 Кбит/сек
Номинальный битрейт : 2250 Кбит/сек
Ширина : 1024 пикселей
Высота : 426 пикселей
Соотношение сторон : 2,40:1
Частота кадров : 23,976 кадра/сек
Разрешение : 24 бит
Колориметрия : 4:2:0
Тип развёртки : Прогрессивная
Бит/(Пиксели*Кадры) : 0.208
Размер потока : 1,50 Гбайт (62%)
Библиотека кодирования : x264 core 125 r2200 999b753
Настройки программы : cabac=1 / ref=9 / deblock=1:-2:-2 / analyse=0x3:0x133 / me=umh / subme=11 / psy=1 / psy_rd=1.00:0.00 / mixed_ref=1 / me_range=32 / chroma_me=1 / trellis=2 / 8x8dct=1 / cqm=0 / deadzone=21,11 / fast_pskip=0 / chroma_qp_offset=-2 / threads=12 / lookahead_threads=2 / sliced_threads=0 / nr=0 / decimate=0 / interlaced=0 / bluray_compat=0 / constrained_intra=0 / bframes=9 / b_pyramid=2 / b_adapt=1 / b_bias=0 / direct=3 / weightb=1 / open_gop=0 / weightp=2 / keyint=240 / keyint_min=23 / scenecut=40 / intra_refresh=0 / rc_lookahead=80 / rc=2pass / mbtree=1 / bitrate=2250 / ratetol=1.0 / qcomp=0.60 / qpmin=0 / qpmax=69 / qpstep=4 / cplxblur=20.0 / qblur=0.5 / ip_ratio=1.40 / aq=1:1.00

Аудио #1
Идентификатор : 2
Формат : AC-3
Формат/Информация : Audio Coding 3
Идентификатор кодека : A_AC3
Продолжительность : 1 ч. 38 м.
Вид битрейта : Постоянный
Битрейт : 448 Кбит/сек
Каналы : 6 каналов
Расположение каналов : Front: L C R, Surround: L R, LFE
Частота : 48,0 КГц
Размер потока : 317 Мбайт (13%)
Заголовок : Любительский двухголосый
Язык : Russian

Аудио #2
Идентификатор : 3
Формат : AC-3
Формат/Информация : Audio Coding 3
Идентификатор кодека : A_AC3
Продолжительность : 1 ч. 38 м.
Вид битрейта : Постоянный
Битрейт : 384 Кбит/сек
Каналы : 6 каналов
Расположение каналов : Front: L C R, Surround: L R, LFE
Частота : 48,0 КГц
Задержка видео : 8 мс.
Размер потока : 271 Мбайт (11%)
Заголовок : Любительский одноголосый (den904)
Язык : Russian

Аудио #3
Идентификатор : 4
Формат : AC-3
Формат/Информация : Audio Coding 3
Идентификатор кодека : A_AC3
Продолжительность : 1 ч. 38 м.
Вид битрейта : Постоянный
Битрейт : 448 Кбит/сек
Каналы : 6 каналов
Расположение каналов : Front: L C R, Surround: L R, LFE
Частота : 48,0 КГц
Размер потока : 317 Мбайт (13%)

Текст #1
Идентификатор : 5
Формат : UTF-8
Идентификатор кодека : S_TEXT/UTF8
Идентификатор кодека/Информация : UTF-8 Plain Text
Язык : Russian

Текст #2
Идентификатор : 6
Формат : UTF-8
Идентификатор кодека : S_TEXT/UTF8
Идентификатор кодека/Информация : UTF-8 Plain Text





Релиз от: Rip by:




реклама партнёра


Вернуться к началу
 Профиль  
 
   Похожие торренты   Автор   Торрент   Размер 
В этой теме нет новых непрочитанных сообщений. Лига Богов / League of Gods [фэнтези, боевик, 2016] WEB-DLRip, Dvo

salma3

358 | 80

1.46 ГБ

В этой теме нет новых непрочитанных сообщений. Лига Богов / League of Gods [фэнтези, исторический, 2016] BDRip 1080p, Dvo

salma3

65 | 28

7.76 ГБ

В этой теме нет новых непрочитанных сообщений. Астерикс: Земля Богов / Astérix: Le domaine des dieux / Asterix: The Mansions of the Gods (Луис Клиши, Александр Астье) [мультфильм, приключения, фэнтези, комедия, 2014] BDRip 1080p, Dub [3D-Video]

Dracon

66 | 2

4.12 ГБ

В этой теме нет новых непрочитанных сообщений. Пища богов / The Food Of The Gods [ужасы, фантастика, 1976] HDTV 1080i, Dvo [НТВ +]

salma3

19 | 48

4.38 ГБ

В этой теме нет новых непрочитанных сообщений. Пища богов / Feed the Gods (Браден Крофт) [ужасы, триллер, приключения, 2014] WEB-DLRip, dvo

Dracon

1125 | 44

1.44 ГБ

В этой теме нет новых непрочитанных сообщений. Пища богов / Feed the Gods (Браден Крофт) [ужасы, триллер, приключения, 2014] WEB-DL 720p, dvo

Dracon

389 | 20

2.47 ГБ

В этой теме нет новых непрочитанных сообщений. Лига Богов / League of Gods (фэнтези, исторический, 2016) 2160p WEB-DL от Batafurai Team и SOUND-GROUP | L2

marya111

58 | 4

5.07 ГБ


Начать новую тему Ответить на тему  [ 1 сообщение ] 




Для Мосгорсуда, Роскомнадзора и рекламодателей:: mosgorsud-torrent[собачка]yandex.ru