Торрент файл
скачать торрент магнет ссылка Добавлен: 09 авг 2013, 14:19
Размер: 1.46 ГБ
Сидеров: 13
Личеров: 2
Статус: (salma3)
Автор

СообщениеДобавлено: 09 авг 2013, 14:19 

Не в сети
Супермодератор
Аватара пользователя
Дата регистрации:
15 фев 2012, 16:44
Возраст: 28
Спасибо: 6574 / 2142
Сообщения: 43825

Невиновный / An Innocent Man

Год выхода: 1989
Жанр: Боевик, Драма, Криминал
Режиссер: Питер Йейтс / Peter Yates

В ролях: Том Селлек, Ф. Мюррэй Абрахам, Лайла Робинс, Дэвид Раш, Ричард Янг, Баджа Джола, Тодд Графф, М. К. Гейни, Питер Ван Норден, Брюс А. Янг


О фильме:
Жизнь преуспевающего авиационного инженера Джими Рэйнвуда давно вошла в привычное русло. Все изменилось в одночасье: Джими оказывается в тюрьме по ложному обвинению. Двое коррумпированных полицейских навсегда перечеркнули его счастье и надежду на будущее. По ту сторону неприступной стены для Джими открылся новый страшный мир, где не живут, а выживают. Но на свободе у невиновного осталась одна заветная цель, ради которой стоит бороться: он ждет того момента, когда сможет взглянуть в лицо своим врагам, чтобы они увидели в его глазах очищающее пламя мести.




Страна: США
Продолжительность: 01:53:31
Перевод: Профессиональный (дублированный)


Файл
Качество: HDRip
Формат файла: AVI
Видео кодек: XviD
Аудио кодек: AC3
Видео: 720x400, 23.976 fps, ~1638 kbps
Аудио:AC3, 2 ch, 192.00 kbps, 48.0 khz


Общее
Полное имя : An.Innocent.Man.1989.HDRip.avi
Формат : AVI
Формат/Информация : Audio Video Interleave
Размер файла : 1,46 Гбайт
Продолжительность : 1 ч. 53 м.
Общий поток : 1840 Кбит/сек
Программа кодирования : VirtualDubMod 1.5.10.3 | http://www.virtualdub-fr.org || (build 2550/release)
Библиотека кодирования : VirtualDubMod build 2550/release

Видео
Идентификатор : 0
Формат : MPEG-4 Visual
Профиль формата : Advanced Simple@L5
Параметр BVOP формата : 1
Параметр QPel формата : Нет
Параметр GMC формата : Без точки перехода
Параметр матрицы формата : Выборочная
Идентификатор кодека : XVID
Идентификатор кодека/Подсказка : XviD
Продолжительность : 1 ч. 53 м.
Битрейт : 1638 Кбит/сек
Ширина : 720 пикс.
Высота : 400 пикс.
Соотношение сторон : 16:9
Частота кадров : 23,976 кадр/сек
Цветовое пространство : YUV
Подвыборка цветности : 4:2:0
Битовая глубина : 8 бит
Тип развёртки : Прогрессивная
Метод сжатия : С потерями
Бит/(Пиксели*Кадры) : 0.237
Размер потока : 1,30 Гбайт (89%)
Библиотека кодирования : XviD 73

Аудио
Идентификатор : 1
Формат : AC-3
Формат/Информация : Audio Coding 3
Расширение режима : CM (complete main)
Идентификатор кодека : 2000
Продолжительность : 1 ч. 53 м.
Вид битрейта : Постоянный
Битрейт : 192 Кбит/сек
Канал(ы) : 2 канала(ов)
Расположение каналов : Front: L R
Частота : 48,0 КГц
Битовая глубина : 16 бит
Метод сжатия : С потерями
Размер потока : 156 Мбайт (10%)
Выравнивание : Разделение по промежуткам
Продолжительность промежутка : 42 мс. (1,00 видеокадр)
Время предзагрузки промежутка : 500 ms


Релиз от: Leon-masl




реклама партнёра


Вернуться к началу
 Профиль Отправить личное сообщение  
 
   Похожие торренты   Автор   Торрент   Размер 
В этой теме нет новых непрочитанных сообщений. Невиновный / The Innocent [драма, 1993] IPTVRip-AVC, Avo

salma3

38 | 15

1.41 ГБ

В этой теме нет новых непрочитанных сообщений. Невинный мирный житель / Innocent Bystanders [Приключения, Боевик, Криминал, 1972] HDRip, Avo

salma3

40 | 9

1.45 ГБ

В этой теме нет новых непрочитанных сообщений. Невинный мирный житель / Innocent Bystanders [боевик, криминал, приключения, 1972] DVDRip, Avo

salma3

115 | 14

1.46 ГБ

В этой теме нет новых непрочитанных сообщений. Невинный мирный житель / Innocent Bystanders [Приключения, Боевик, Криминал, 1972] BDRip 1080p, Avo

salma3

56 | 22

8.09 ГБ

В этой теме нет новых непрочитанных сообщений. Чёрный дождь / Black Rain [боевик, триллер, криминал, 1989] HDRip, Mvo

salma3

263 | 13

1.45 ГБ

В этой теме нет новых непрочитанных сообщений. Сон младенца / The Innocent Sleep [триллер, драма, криминал, 1996] DVDRip, Dvo

salma3

22 | 4

1.46 ГБ

В этой теме нет новых непрочитанных сообщений. Делай как надо! / Do the Right Thing [Комедия, драма, криминал, 1989] HDRip, Dvo

salma3

76 | 13

1.46 ГБ


Начать новую тему Ответить на тему  [ 1 сообщение ] 




Для Мосгорсуда, Роскомнадзора и рекламодателей:: mosgorsud-torrent[собачка]yandex.ru