Торрент файл
скачать торрент магнет ссылка Добавлен: 13 авг 2013, 00:09
Размер: 1.46 ГБ
Сидеров: 43
Личеров: 5
Статус: (salma3)
Автор

СообщениеДобавлено: 09 авг 2013, 14:12 

Не в сети
Супермодератор
Аватара пользователя
Дата регистрации:
15 фев 2012, 16:44
Возраст: 28
Спасибо: 6481 / 2129
Сообщения: 41129
Большой папа / Big Daddy

Год выхода: 1999
Жанр: драма, комедия
Режиссер: Дэннис Дуган / Dennis Dugan

В ролях: Адам Сэндлер, Джои Лорен Эдамс, Джон Стюарт, Коул Спроус, Дилан Спроус, Джош Мостел, Лесли Манн, Аллен Коверт, Роб Шнайдер, Кристи Суонсон, Джозеф Болонья, Питер Данте, Джонатан Лоугрэн, Стив Бушеми, Тим Херлихи, Эдмунд Линдек и др.


О фильме:
Если бы дети могли выбирать себе родителей, все малыши попросили бы, чтобы тридцатилетний Санни был их папой. Ведь он разрешает делать абсолютно все: есть кетчупа вдоволь, плеваться, где хочешь, ходить по улице в ластах, не спать, не мыть руки и не убирать постель.

Когда человек, который сам так и не сумел повзрослеть, вдобавок усыновляет маленького мальчика, рождается самая забавная семья, маленький цирк, где на арене выступает большой папа.




Страна: США
Продолжительность: 01:33:04
Перевод: Профессиональный (дублированный)


Качество: HDRip
Формат: AVI
Видео кодек: XviD
Аудио кодек: AC3
Видео: 720x384 (1.88:1), 23.976 fps, XviD build 73 ~1855 kbps avg, 0.28 bit/pixel
Аудио: 48 kHz, AC3 Dolby Digital, 3/2 (L,C,R,l,r) + LFE ch, ~384 kbps


C:Big.Daddy.1999.HDRip.1.45GB.by_dexter_lex.avi
General
Complete name : C:Big.Daddy.1999.HDRip.1.45GB.by_dexter_lex.avi
Format : AVI
Format/Info : Audio Video Interleave
File size : 1.46 GiB
Duration : 1h 33mn
Overall bit rate : 2 248 Kbps
Writing application : VirtualDubMod 1.5.10.3 | http://www.virtualdub-fr.org || (build 2550/release)
Writing library : VirtualDubMod build 2550/release
Video #0
ID : 0
Format : MPEG-4 Visual
Format profile : Advanced Simple@L5
Format settings, BVOP : 1
Format settings, QPel : No
Format settings, GMC : No warppoints
Format settings, Matrix : Custom
Codec ID : XVID
Codec ID/Hint : XviD
Duration : 1h 33mn
Bit rate : 1 855 Kbps
Width : 720 pixels
Height : 384 pixels
Display aspect ratio : 1.875
Frame rate : 23.976 fps
Color space : YUV
Chroma subsampling : 4:2:0
Bit depth : 8 bits
Scan type : Progressive
Bits/(Pixel*Frame) : 0.280
Stream size : 1.21 GiB (83%)
Writing library : XviD 73
Audio #1
ID : 1
Format : AC-3
Format/Info : Audio Coding 3
Mode extension : CM (complete main)
Codec ID : 2000
Duration : 1h 33mn
Bit rate mode : Constant
Bit rate : 384 Kbps
Channel(s) : 6 channels
Channel positions : Front: L C R, Side: L R, LFE
Sampling rate : 48.0 KHz
Stream size : 256 MiB (17%)
Alignment : Split accross interleaves
Interleave, duration : 42 ms (1.00 video frame)
Interleave, preload duration : 500 ms

Раздача от:




реклама партнёра


Вернуться к началу
 Профиль Отправить личное сообщение  
 
   Похожие торренты   Автор   Торрент   Размер 
В этой теме нет новых непрочитанных сообщений. Здравствуй, папа, Новый год / Daddy's Home [Комедия, 2015] HDRip, dub [чистый звук]

Dracon

5040 | 49

1.37 ГБ

В этой теме нет новых непрочитанных сообщений. Папа любит мои большие сиськи / Daddy Loves My Big Tits (2016) WEBRip

salma3

14 | 2

1.22 ГБ

В этой теме нет новых непрочитанных сообщений. Daddy, I've Never Squirted Before! / Папа, Я Никогда Не Брызгала Раньше! (Toni Ribas, Evil Angel) [2017 г., All Sex, Oral, Gonzo, Legal Teen, Anal, Squirting, DVDRip]

max77777

9 | 7

1.18 ГБ

В этой теме нет новых непрочитанных сообщений. Больше, чем папа / Auf Augenhöhe [комедия, семейный, 2016] HDRip, Mvo

salma3

0 | 0

1.36 ГБ

В этой теме нет новых непрочитанных сообщений. Папа Дэн [01-16 из 16] [Драма, комедия, мелодрама, 2017] WEB-DLRip

salma3

0 | 0

9.38 ГБ

В этой теме нет новых непрочитанных сообщений. Папа Дэн [01-16 из 16] [Драма, комедия, мелодрама, 2017] SATRip-AVC

salma3

0 | 0

8.21 ГБ

В этой теме нет новых непрочитанных сообщений. Здравствуй, папа / Buongiorno papa [комедия, драма, 2013] DVDRip, Avo

salma3

370 | 9

1.37 ГБ


Начать новую тему Ответить на тему  [ 1 сообщение ] 




Для Мосгорсуда, Роскомнадзора и рекламодателей:: mosgorsud-torrent[собачка]yandex.ru