Торрент файл
скачать торрент магнет ссылка Добавлен: 09 авг 2013, 09:24
Размер: 1.46 ГБ
Сидеров: 433
Личеров: 32
Автор

СообщениеДобавлено: 09 авг 2013, 09:24 

Не в сети
Зам. Админа
Аватара пользователя
Дата регистрации:
02 дек 2010, 12:39
Спасибо: 12461 / 214
Сообщения: 27968
Год выпуска: 2012
Страна: Корея Южная
Киностудия: Gio Entertainment

Жанр: фантастика, драма
Продолжительность: 01:53:21

Перевод: Профессиональный (многоголосый)
Субтитры: русский, английский
Оригинальная аудиодорожка: нет

Режиссер: Лим Пхиль Сон / Yim Pil Sung, Ким Чжи Ун / Kim Ji Woon

В ролях: Юн Се А, Пэ Ду На, Пон Чжун Хо, Чин Чжи Хи, Чо Юн Хье, Мин Сун Ким, Джон Д. Ким, Ким Кан У, Ко Чжун Хи, Ли Сын Чжун...

Описание: Три уникальные истории о человеческом самоуничтожении в современную эру высоких технологий. В надежде восстановить гуманное сострадание в наше бесчувственное время, фильм демонстрирует альтернативную сторону подлинного человечества. Вы станете свидетелем мира будущего, где вас ожидает серия неожиданных историй. Все эти истории происходят на Земле.






Исходник: japhson-doomsdaybook-720p + DVD9 R5
Качество: HDRip
Формат: AVI
Дополнительно: Я стараюсь следить за русскими субтитрами и всегда их ставлю, если они мне в каком-либо виде доступны. Сам вроде пока не обделен слухом, но тем не менее. Не все мы хорошо слышим, уж какими Бог сделал нас, такие мы и есть.

Видео: 720x304 (2.35:1), 23.976 fps, XViD ~ 1447 kbps avg, 0.276 bit/pixel
Аудио: 48 kHz, АС3 6 ch, 384 kbps, русский

Раздача от:
Общее
Полное имя : Kniga.sudnogo.dnya.2012.P.HDRip_[Youtracker]_by_avproh.avi
Формат : AVI
Формат/Информация : Audio Video Interleave
Размер файла : 1,46 Гбайт
Продолжительность : 1 ч. 53 м.
Общий поток : 1840 Кбит/сек
Программа кодирования : VirtualDubModRus 1.5.10.2 (build 2542/release)
Библиотека кодирования : VirtualDubMod build 2542/release

Видео
Идентификатор : 0
Формат : MPEG-4 Visual
Профиль формата : Advanced Simple@L5
Параметр BVOP формата : 1
Параметр QPel формата : Нет
Параметр GMC формата : Без точки перехода
Параметр матрицы формата : Выборочная
Идентификатор кодека : XVID
Идентификатор кодека/Подсказка : XviD
Продолжительность : 1 ч. 53 м.
Битрейт : 1447 Кбит/сек
Ширина : 720 пикселей
Высота : 304 пикселя
Соотношение сторон : 2,35:1
Частота кадров : 23,976 кадра/сек
Цветовое пространство : YUV
Субдискретизация насыщенности : 4:2:0
Битовая глубина : 8 бит
Тип развёртки : Прогрессивная
Метод сжатия : С потерями
Бит/(Пиксели*Кадры) : 0.276
Размер потока : 1,15 Гбайт (79%)
Библиотека кодирования : XviD 65

Аудио
Идентификатор : 1
Формат : AC-3
Формат/Информация : Audio Coding 3
Расширение режима : CM (complete main)
Параметр Endianness формата : Big
Идентификатор кодека : 2000
Продолжительность : 1 ч. 53 м.
Вид битрейта : Постоянный
Битрейт : 384 Кбит/сек
Каналы : 6 каналов
Расположение каналов : Front: L C R, Side: L R, LFE
Частота : 48,0 КГц
Битовая глубина : 16 бит
Метод сжатия : С потерями
Размер потока : 311 Мбайт (21%)
Выравнивание : Разделение по промежуткам
Продолжительность промежутка : 42 мс. (1,00 видеокадр)
Время предзагрузки промежутка : 500 мс.






реклама партнёра


Вернуться к началу
 Профиль  
 
   Похожие торренты   Автор   Торрент   Размер 
В этой теме нет новых непрочитанных сообщений. Знамение Судного дня / The 12 Disasters of Christmas [Фантастика, 2012] HDRip, Mvo [лицензия]

salma3

4 | 6

1.46 ГБ

В этой теме нет новых непрочитанных сообщений. Книга джунглей / The Jungle Book [драма, фэнтези, приключения , 2016] BDRip, Dub [Лицензия]

salma3

288 | 7

1.46 ГБ

В этой теме нет новых непрочитанных сообщений. Книга джунглей / The Jungle Book [Фэнтези, драма, приключения, 2016] BDRip 720p, Dub [Лицензия]

marya111

0 | 0

7.84 ГБ

В этой теме нет новых непрочитанных сообщений. Книга джунглей / The Jungle Book [фэнтези, драма, приключения, семейный, 2016] BDRip 720p, Dub [Лицензия]

salma3

24 | 9

8.91 ГБ

В этой теме нет новых непрочитанных сообщений. Знамение Судного дня / Двенадцать бедствий на Рождество / The 12 Disasters of Christmas [Фантастика, 2012] BDRip 720p, Mvo+Sub [лицензия]

Dracon

72 | 16

4.65 ГБ

В этой теме нет новых непрочитанных сообщений. Книга джунглей / The Jungle Book [Фэнтези, драма, приключения, семейный, 2016] BDRip 1080p, Dub [Лицензия] [3D-Video]

salma3

118 | 29

16.68 ГБ

В этой теме нет новых непрочитанных сообщений. Потерянные: Книга теней / Nowhere Boys: The Book of Shadows [фантастика, приключения, 2016] WEB-DLRip, Mvo

salma3

467 | 23

1.45 ГБ


Начать новую тему Ответить на тему  [ 1 сообщение ] 




Для Мосгорсуда, Роскомнадзора и рекламодателей:: mosgorsud-torrent[собачка]yandex.ru