Торрент файл
скачать торрент магнет ссылка Добавлен: 07 авг 2013, 10:04
Размер: 4.4 ГБ
Сидеров: 3
Личеров: 2
Автор

СообщениеДобавлено: 07 авг 2013, 10:04 

Не в сети
Зам. Админа
Аватара пользователя
Дата регистрации:
02 дек 2010, 12:39
Спасибо: 12461 / 214
Сообщения: 27968


Год выпуска: 2011
Жанр: Драма, криминал
Выпущено: Гонконг, Media Asia Films, Milky Way Image Company
Режиссер: Джонни То
Продолжительность: 01:46:34

В ролях: Чинг Ван Лау, Теренс Йин, Ричи Рен, Феликс Вонг, Дениз Хо, Siu-Fai Cheung, Миоли Ву, Винсент Сзе, Кортни Ву, Стефани Че

О фильме: Современный финансовый мир рушится, фондовый рынок резко обвалился, и все пытаются: спасти свои деньги, продать, купить или сбежать с чужими деньгами. Так менеджер банка Тереза, в страхе потерять работу, навязывает акции трастового фонда с высоким риском пожилой клиентке. Инспектор полиции Чун ищет пенсионера-убийцу и расследует смерть ростовщика, забитого в подземном гараже. А у триады свои заботы — один из них, брат Барс, простодушный неумеха, старается помочь вернуть деньги своему другу, финансовому брокеру…

Качество: BDRip 720p
Видео: MPEG-4 AVC, 3420 Кбит/с, 1280x544
Аудио: русский, 48 kHz, AC3, 6 ch, 448 kbps avg, Юрий Сербин [Авторский]
Аудио: русский, 48 kHz, DTS, 6 ch, 1509 kbps avg, Юрий Сербин [Авторский]
Аудио: китайский, 48 kHz, AC3, 6 ch, 448 kbps avg, [Оригинал]
Субтитры: русские
Субтитры: английские

Сравнение с исходником



Венецианский кинофестиваль, 2011 год
Номинации (1):
Золотой лев
prouste

Совершенно внятное социальное высказывание Джонни То, наиприятнейшим образом организованное в виде нелинейного монтажа событий одного дня с участием нескольких сквозных персонажей. Повезло в результате мелким сошкам и совершенно случайно. Мысль об идиотизме фондовых рынков, банковских операций и всех участников этих аттракционов продемонстрирована весьма убедительно. Добавьте безукоризненную визуально форму, приятных актеров, среди которых Чинг Ван Лау солирует в роли забавной гангстерской шестерки, столь неуместной среди современных моделей отнимания денег — может сложиться мнение, что фильм чуть ли не выдающийся.
Меж тем, это совсем не так...

6 из 10

Кинопоиск
---[Information] [06.08.2013 17:30:44] avs [info]: 1280x544p 1:1 @ 24/1 fps (cfr)
---[Information] [06.08.2013 17:30:44] x264 [info]: using SAR=1/1
---[Information] [06.08.2013 17:30:44] x264 [info]: using cpu capabilities: MMX2 SSE2Fast SSSE3 SSE4.2
---[Information] [06.08.2013 17:30:44] x264 [info]: profile High, level 4.1
---[Information] [07.08.2013 2:38:18] x264 [info]: frame I:1058 Avg QP:16.42 size: 90668
---[Information] [07.08.2013 2:38:18] x264 [info]: frame P:30745 Avg QP:17.90 size: 40646
---[Information] [07.08.2013 2:38:18] x264 [info]: frame B:121653 Avg QP:20.28 size: 11916
---[Information] [07.08.2013 2:38:18] x264 [info]: consecutive B-frames: 1.6% 1.6% 5.9% 12.5% 12.1% 59.5% 4.5% 1.2% 1.2%
---[Information] [07.08.2013 2:38:18] x264 [info]: mb I I16..4: 17.2% 63.5% 19.3%
---[Information] [07.08.2013 2:38:18] x264 [info]: mb P I16..4: 1.9% 13.0% 1.7% P16..4: 34.1% 28.8% 15.0% 0.0% 0.0% skip: 5.5%
---[Information] [07.08.2013 2:38:18] x264 [info]: mb B I16..4: 0.1% 0.9% 0.1% B16..8: 41.7% 12.4% 3.6% direct: 6.1% skip:35.1% L0:43.7% L1:46.1% BI:10.2%
---[Information] [07.08.2013 2:38:18] x264 [info]: 8x8 transform intra:77.1% inter:54.0%
---[Information] [07.08.2013 2:38:18] x264 [info]: coded y,uvDC,uvAC intra: 93.4% 88.8% 73.6% inter: 25.8% 25.3% 7.7%
---[Information] [07.08.2013 2:38:18] x264 [info]: i16 v,h,dc,p: 20% 9% 26% 45%
---[Information] [07.08.2013 2:38:18] x264 [info]: i8 v,h,dc,ddl,ddr,vr,hd,vl,hu: 10% 10% 15% 9% 11% 11% 12% 11% 13%
---[Information] [07.08.2013 2:38:18] x264 [info]: i4 v,h,dc,ddl,ddr,vr,hd,vl,hu: 11% 11% 3% 9% 14% 14% 14% 11% 13%
---[Information] [07.08.2013 2:38:18] x264 [info]: i8c dc,h,v,p: 48% 21% 17% 14%
---[Information] [07.08.2013 2:38:18] x264 [info]: Weighted P-Frames: Y:2.4% UV:1.3%
---[Information] [07.08.2013 2:38:18] x264 [info]: ref P L0: 41.7% 10.4% 20.1% 6.5% 6.6% 3.9% 4.4% 2.0% 2.5% 1.8% 0.2% 0.0%
---[Information] [07.08.2013 2:38:18] x264 [info]: ref B L0: 74.6% 11.4% 5.0% 3.0% 1.9% 1.8% 1.3% 0.7% 0.4%
---[Information] [07.08.2013 2:38:18] x264 [info]: ref B L1: 94.8% 5.2%
---[Information] [07.08.2013 2:38:18] x264 [info]: kb/s:3497.26
---[Information] [07.08.2013 2:38:18] encoded 153456 frames, 4.67 fps, 3497.26 kb/s
--[Information] [07.08.2013 2:38:21] Final statistics
---[Information] [07.08.2013 2:38:21] Constant Quality Mode: Quality 18 computed...
---[Information] [07.08.2013 2:38:21] Video Bitrate Obtained (approximate): 3498 kbit/s
--[Information] [07.08.2013 2:38:21] MediaInfo
---[Information] File: E:RipGizn.bez.principov.2011.x264.BDRipGizn.bez.principov.2011.x264.BDRip.720p.mkv
Общее
Полное имя : E:VideoGizn.bez.principov.2011.x264.BDRip.720pGizn.bez.principov.2011.AVO.rus.Ю.Сербин.dts
Формат : DTS
Формат/Информация : Digital Theater Systems
Размер файла : 1,12 Гбайт
Продолжительность : 1 ч. 46 м.
Режим общего битрейта : Постоянный
Общий поток : 1509 Кбит/сек

Аудио
Формат : DTS
Формат/Информация : Digital Theater Systems
Режим : 16
Параметр Endianness формата : Big
Продолжительность : 1 ч. 46 м.
Вид битрейта : Постоянный
Битрейт : 1509 Кбит/сек
Каналы : 6 каналов
Расположение каналов : Front: L C R, Side: L R, LFE
Частота : 48,0 КГц
Битовая глубина : 16 бит
Метод сжатия : С потерями
Размер потока : 1,12 Гбайт (100%)

Общее
Полное имя : E:VideoGizn.bez.principov.2011.x264.BDRip.720pGizn.bez.principov.2011.eng.srt
Размер файла : 189 Кбайт

Общее
Полное имя : E:VideoGizn.bez.principov.2011.x264.BDRip.720pGizn.bez.principov.2011.Original.chi.ac3
Формат : AC-3
Формат/Информация : Audio Coding 3
Размер файла : 341 Мбайт
Продолжительность : 1 ч. 46 м.
Режим общего битрейта : Постоянный
Общий поток : 448 Кбит/сек

Аудио
Формат : AC-3
Формат/Информация : Audio Coding 3
Расширение режима : CM (complete main)
Параметр Endianness формата : Big
Продолжительность : 1 ч. 46 м.
Вид битрейта : Постоянный
Битрейт : 448 Кбит/сек
Каналы : 6 каналов
Расположение каналов : Front: L C R, Side: L R, LFE
Частота : 48,0 КГц
Битовая глубина : 16 бит
Метод сжатия : С потерями
Размер потока : 341 Мбайт (100%)

Общее
Полное имя : E:VideoGizn.bez.principov.2011.x264.BDRip.720pGizn.bez.principov.2011.rus.julz_nsk.srt
Размер файла : 166 Кбайт

Общее
Уникальный идентификатор : 199597140457187991897646452667598032671 (0x962902CE68C97726BEF933E8C60CCF1F)
Полное имя : E:VideoGizn.bez.principov.2011.x264.BDRip.720pGizn.bez.principov.2011.x264.BDRip.720p.mkv
Формат : Matroska
Версия формата : Version 4 / Version 2
Размер файла : 2,94 Гбайт
Продолжительность : 1 ч. 46 м.
Общий поток : 3947 Кбит/сек
Название фильма : Жизнь без принципов / Dyut meng gam / 2011 / BDRip -- STarankov
Дата кодирования : UTC 2013-08-07 02:17:04
Программа кодирования : mkvmerge v6.3.0 ('You can't stop me!') built on Jun 28 2013 20:09:41
Библиотека кодирования : libebml v1.3.0 + libmatroska v1.4.0

Видео
Идентификатор : 1
Формат : AVC
Формат/Информация : Advanced Video Codec
Профиль формата : High@L4.1
Параметр CABAC формата : Да
Параметр ReFrames формата : 10 кадров
Идентификатор кодека : V_MPEG4/ISO/AVC
Продолжительность : 1 ч. 46 м.
Битрейт : 3420 Кбит/сек
Ширина : 1280 пикселей
Высота : 544 пикселя
Соотношение сторон : 2,35:1
Режим частоты кадров : Постоянный
Частота кадров : 24,000 кадра/сек
Цветовое пространство : YUV
Субдискретизация насыщенности : 4:2:0
Битовая глубина : 8 бит
Тип развёртки : Прогрессивная
Бит/(Пиксели*Кадры) : 0.205
Размер потока : 2,55 Гбайт (87%)
Библиотека кодирования : x264 core 135 r2345 f0c1c53
Настройки программы : cabac=1 / ref=10 / deblock=1:-1:-1 / analyse=0x3:0x113 / me=umh / subme=10 / psy=1 / psy_rd=1.00:0.15 / mixed_ref=1 / me_range=24 / chroma_me=1 / trellis=2 / 8x8dct=1 / cqm=0 / deadzone=21,11 / fast_pskip=0 / chroma_qp_offset=-3 / threads=6 / lookahead_threads=1 / sliced_threads=0 / nr=0 / decimate=1 / interlaced=0 / bluray_compat=0 / constrained_intra=0 / bframes=8 / b_pyramid=2 / b_adapt=2 / b_bias=0 / direct=1 / weightb=1 / open_gop=0 / weightp=2 / keyint=230 / keyint_min=23 / scenecut=40 / intra_refresh=0 / rc_lookahead=40 / rc=crf / mbtree=0 / crf=18.5 / qcomp=0.60 / qpmin=0 / qpmax=69 / qpstep=4 / vbv_maxrate=50000 / vbv_bufsize=62500 / crf_max=0.0 / nal_hrd=none / ip_ratio=1.40 / pb_ratio=1.30 / aq=1:1.00
Язык : Chinese
Default : Да
Forced : Нет

Аудио
Идентификатор : 2
Формат : AC-3
Формат/Информация : Audio Coding 3
Расширение режима : CM (complete main)
Параметр Endianness формата : Big
Идентификатор кодека : A_AC3
Продолжительность : 1 ч. 46 м.
Вид битрейта : Постоянный
Битрейт : 448 Кбит/сек
Каналы : 6 каналов
Расположение каналов : Front: L C R, Side: L R, LFE
Частота : 48,0 КГц
Битовая глубина : 16 бит
Метод сжатия : С потерями
Размер потока : 341 Мбайт (11%)
Заголовок : AVO (Юрий Сербин)
Язык : Russian
Default : Да
Forced : Нет






реклама партнёра


Вернуться к началу
 Профиль  
 
   Похожие торренты   Автор   Торрент   Размер 
В этой теме нет новых непрочитанных сообщений. Жизнь короля / Life of a King [драма, криминал, 2013] BDRip 720p, аvo

Dracon

107 | 5

5.25 ГБ

В этой теме нет новых непрочитанных сообщений. Менее привычная жизнь / A Life Less Ordinary [фэнтези, драма, мелодрама, комедия, криминал, 1997] BDRip 720p, Mvo

salma3

63 | 31

4.53 ГБ

В этой теме нет новых непрочитанных сообщений. Лифт: Три минуты могут изменить вашу жизнь / The Elevator: Three Minutes Can Change Your Life (Массимо Кольиторе) [драма, криминал, 2013] BDRip 720p, dvo+sub

Dracon

2 | 2

5.63 ГБ

В этой теме нет новых непрочитанных сообщений. Невероятная жизнь Уолтера Митти / The Secret Life of Walter Mitty [фэнтези, драма, комедия, приключения, 2013] BDRip 720p, Dub+Sub [Лицензия]

Dracon

276 | 3

6.49 ГБ

В этой теме нет новых непрочитанных сообщений. Становление легенды / Huang Feihong Zhi Yingxiong You Meng (Сянь-ян Чоу) [Боевик, Драма, Биография, 2014] BDRip 720p, dvo

Марик

5 | 3

6.61 ГБ

В этой теме нет новых непрочитанных сообщений. Водная жизнь / The Life Aquatic with Steve Zissou [Комедия, приключения, 2004] BDRip 720p, Mvo+Dvo+Sub

salma3

30 | 4

7.09 ГБ

В этой теме нет новых непрочитанных сообщений. Моя жизнь / My Life [драма, 1993] WEB-DL 720p, Mvo+Avo+Sub

salma3

45 | 5

3.83 ГБ


Начать новую тему Ответить на тему  [ 1 сообщение ] 




Для Мосгорсуда, Роскомнадзора и рекламодателей:: mosgorsud-torrent[собачка]yandex.ru