Торрент файл
скачать торрент магнет ссылка Добавлен: 03 авг 2013, 13:07
Размер: 1.46 ГБ
Сидеров: 8
Личеров: 2
Статус: (salma3)
Автор

СообщениеДобавлено: 03 авг 2013, 13:07 

В сети
Супермодератор
Аватара пользователя
Дата регистрации:
15 фев 2012, 16:44
Возраст: 27
Спасибо: 5139 / 2090
Сообщения: 17443

Футбольные гладиаторы / Awaydays

Год выхода: 2009
Жанр: драма, криминал
Режиссер: Пэт Холден / Pat Holden
В ролях: Никки Белл, Лайам Бойл, Стивен Грэм, Оливер Ли, Ли Бэттл, Майкл Райан, Шон Уорд, Эллиот Хьюз...

О фильме:
Взгляд на британскую молодёжь времён первых лет реформ премьер-министра Маргарет Тэтчер. Не видя для себя никаких перспектив, молодые люди ищут спасение от рутинной работы с 9 до 5 в альтернативном образе жизни, оставшемся в истории как: «секс, наркотики и рок-н-ролл»...




Страна: Великобритания
Продолжительность: 01:45:01
Перевод: Профессиональный (многоголосый)
Субтитры: русский, русский с матом, английский, английский (SHD)


Файл
Качество: DVDRip
Формат файла: AVI
Видео кодек: XviD
Аудио кодек: AC3
Видео: 720x384 (1.85:1), 25.000 fps, XViD ~ 1529 kbps avg, 0.231 bit/pixel
Аудио: 48 kHz, АС3 6 ch, 448 kbps, русский





Общее
Полное имя : Futbolnye.gladiatory.2009.HDRip_[Youtracker]_by_avproh.avi
Формат : AVI
Формат/Информация : Audio Video Interleave
Размер файла : 1,46 Гбайт
Продолжительность : 1 ч. 45 м.
Общий поток : 1986 Кбит/сек
Программа кодирования : VirtualDubModRus 1.5.10.2 (build 2542/release)
Библиотека кодирования : VirtualDubMod build 2542/release

Видео
Идентификатор : 0
Формат : MPEG-4 Visual
Профиль формата : Advanced Simple@L5
Параметр BVOP формата : 1
Параметр QPel формата : Нет
Параметр GMC формата : Без точки перехода
Параметр матрицы формата : Выборочная
Идентификатор кодека : XVID
Идентификатор кодека/Подсказка : XviD
Продолжительность : 1 ч. 45 м.
Битрейт : 1529 Кбит/сек
Ширина : 720 пикселей
Высота : 384 пикселя
Соотношение сторон : 1,85:1
Частота кадров : 23,976 кадра/сек
Цветовое пространство : YUV
Субдискретизация насыщенности : 4:2:0
Битовая глубина : 8 бит
Тип развёртки : Прогрессивная
Метод сжатия : С потерями
Бит/(Пиксели*Кадры) : 0.231
Размер потока : 1,12 Гбайт (77%)
Библиотека кодирования : XviD 65

Аудио
Идентификатор : 1
Формат : AC-3
Формат/Информация : Audio Coding 3
Расширение режима : CM (complete main)
Параметр Endianness формата : Big
Идентификатор кодека : 2000
Продолжительность : 1 ч. 45 м.
Вид битрейта : Постоянный
Битрейт : 448 Кбит/сек
Каналы : 6 каналов
Расположение каналов : Front: L C R, Side: L R, LFE
Частота : 48,0 КГц
Битовая глубина : 16 бит
Метод сжатия : С потерями
Размер потока : 337 Мбайт (23%)
Выравнивание : Разделение по промежуткам
Продолжительность промежутка : 42 мс. (1,00 видеокадр)
Время предзагрузки промежутка : 500 мс.
Дополнительно: Да пусть извинят релизеры этого фильма, но я всегда слежу за русскими субтитрами и стараюсь поставить релиз, если русские субтитры мне в каком-либо виде доступны. Сам вроде пока не обделен слухом, но тем не менее. Не все мы хорошо слышим, уж как Бог сделал нас, такие мы и есть. Вторая русская дорожка субтитров содержит ненормативную лексику. Просьба не включать её в присутствии детей.


Раздача от:




реклама партнёра


Вернуться к началу
 Профиль Отправить личное сообщение  
 
   Похожие торренты   Автор   Торрент   Размер 
В этой теме нет новых непрочитанных сообщений. Где-то там / Elsewhere [триллер, драма, криминал, 2009] HDRip, Dvo

salma3

15 | 2

1.45 ГБ

В этой теме нет новых непрочитанных сообщений. Гладиаторы [16.11] [Action, MMORPG, Фэнтези, 2015] [Лицензия]

holokofi

1 | 0

537.4 МБ

В этой теме нет новых непрочитанных сообщений. Рэйн Фолл / Rain Fall [боевик, триллер, драма, криминал, 2009] HDRip, Dvo

salma3

0 | 2

1.46 ГБ

В этой теме нет новых непрочитанных сообщений. Плохой лейтенант / The Bad Lieutenant: Port of Call New Orleans [Драма, криминал, 2009] HDRip, Mvo [Лицензия]

salma3

2 | 2

1.46 ГБ

В этой теме нет новых непрочитанных сообщений. Налёт / Braquo [S01-02] [Триллер, криминал, 2009-2011] HDRip, Mvo [Amedia]

salma3

104 | 14

12.73 ГБ

В этой теме нет новых непрочитанных сообщений. Швея / The Seamstress [ужасы, триллер, криминал, детектив, 2009] HDRip, Mvo [Кинопоказ]

salma3

64 | 19

1.35 ГБ

В этой теме нет новых непрочитанных сообщений. Джо / Joe [драма, криминал, 2013] HDRip, Mvo [лицензия]

Dracon

2212 | 93

1.46 ГБ


Начать новую тему Ответить на тему  [ 1 сообщение ] 




Для Мосгорсуда, Роскомнадзора и рекламодателей:: mosgorsud-torrent[собачка]yandex.ru