Торрент файл
скачать торрент магнет ссылка Добавлен: 02 авг 2013, 20:41
Размер: 1.45 ГБ
Сидеров: 237
Личеров: 18
Автор

СообщениеДобавлено: 02 авг 2013, 20:41 

Не в сети
Супермодератор
Аватара пользователя
Дата регистрации:
15 фев 2012, 16:44
Возраст: 27
Спасибо: 5139 / 2090
Сообщения: 17432
Десятидюймовый герой / Ten Inch Hero

Год выпуска: 2007
Страна: США
Жанр: комедия, мелодрама, драма
Продолжительность: 01:42:08
Перевод: Профессиональный (многоголосый, закадровый)
Русские субтитры: нет

Режиссер: Дэвид Маккей / David Mackay

В ролях: Элизабет Хэрнойс, Клеа ДюВаль, Шон Патрик Флэнери, Дженсен Экклз, Дэннил Харрис, Элис Кридж, Джон Доу

Описание: В прибрежной закусочной старого хиппи Тракера, трудятся не покладая рук четверо молодых людей. Соблазнительная и ветреная Тиш, с головой ушедшая в поиски идеального мужчины. Одаренная художница Пайпер, приехавшая в город в надежде найти своего ребенка, которого когда-то отдала на усыновление. Джен – умная, добрая, но совершенно неприметная на фоне своих ярких подруг. И, наконец, Пристли - весельчак и балагур с пирсингом, кучей татуировок во всевозможных местах и разноцветным ирокезом.
У каждого из них есть заветная мечта. Каждый пришел в эту закусочную со своей целью, заметив яркую табличку «Требуются работники. «Нормальным» просьба не беспокоить». Найдут ли они здесь то, что искали? Наверняка, ведь каждый из них по-своему особенный.



Качество: DVDRip-AVC
Формат: MKV
Видео кодек: H264
Аудио кодек: AC3
Видео: 720x480@848x480 (16:9), 23.976 fps, H264, 1 845 Kbps, 0.223 bit/pixel
Аудио: 48 kHz, AC3 Dolby Digital, 2/0 (L,R) ch, ~192.00 kbps avg

Раздача от:


D:Ten.Inch.Hero.2007.DVDRip-AVC.by_dexter_lex.mkv
General
Unique ID : 190836757966662823588585723419602741221 (0x8F91D29A397209DE8A7CE8A4FE1C67E5)
Complete name : D:Ten.Inch.Hero.2007.DVDRip-AVC.by_dexter_lex.mkv
Format : Matroska
Format version : Version 4 / Version 2
File size : 1.45 GiB
Duration : 1h 42mn
Overall bit rate : 2 038 Kbps
Encoded date : UTC 2013-08-02 14:23:44
Writing application : mkvmerge v6.1.0 ('Old Devil') built on Mar 4 2013 09:10:42
Writing library : libebml v1.3.0 + libmatroska v1.4.0
Video #1
ID : 1
Format : AVC
Format/Info : Advanced Video Codec
Format profile : High@L4.1
Format settings, CABAC : Yes
Format settings, ReFrames : 11 frames
Codec ID : V_MPEG4/ISO/AVC
Duration : 1h 42mn
Bit rate : 1 845 Kbps
Width : 720 pixels
Height : 480 pixels
Display aspect ratio : 16:9
Original display aspect ratio : 16:9
Frame rate : 23.976 fps
Standard : NTSC
Color space : YUV
Chroma subsampling : 4:2:0
Bit depth : 8 bits
Scan type : Progressive
Bits/(Pixel*Frame) : 0.223
Stream size : 1.29 GiB (89%)
Writing library : x264 core 130 r2273 b3065e6
Encoding settings : cabac=1 / ref=11 / deblock=1:-2:-1 / analyse=0x3:0x113 / me=umh / subme=10 / psy=1 / psy_rd=1.00:0.20 / mixed_ref=1 / me_range=32 / chroma_me=1 / trellis=2 / 8x8dct=1 / cqm=0 / deadzone=21,11 / fast_pskip=0 / chroma_qp_offset=-3 / threads=6 / lookahead_threads=1 / sliced_threads=0 / nr=0 / decimate=1 / interlaced=0 / bluray_compat=0 / constrained_intra=0 / bframes=8 / b_pyramid=2 / b_adapt=2 / b_bias=0 / direct=3 / weightb=1 / open_gop=0 / weightp=2 / keyint=240 / keyint_min=23 / scenecut=40 / intra_refresh=0 / rc_lookahead=60 / rc=2pass / mbtree=1 / bitrate=1845 / ratetol=1.0 / qcomp=0.60 / qpmin=0 / qpmax=69 / qpstep=4 / cplxblur=20.0 / qblur=0.5 / ip_ratio=1.40 / aq=1:1.00
Default : Yes
Forced : No
Audio #2
ID : 2
Format : AC-3
Format/Info : Audio Coding 3
Mode extension : CM (complete main)
Codec ID : A_AC3
Duration : 1h 42mn
Bit rate mode : Constant
Bit rate : 192 Kbps
Channel(s) : 2 channels
Channel positions : Front: L R
Sampling rate : 48.0 KHz
Bit depth : 16 bits
Compression mode : Lossy
Stream size : 140 MiB (9%)
Language : Russian
Default : Yes
Forced : No




реклама партнёра


Вернуться к началу
 Профиль Отправить личное сообщение  
 
   Похожие торренты   Автор   Торрент   Размер 
В этой теме нет новых непрочитанных сообщений. Десятидюймовый герой / Ten Inch Hero (Дэвид Маккэй) [2007, драма, мелодрама, комедия, WEB-DL 720p] mvo

Nickolas3435

182 | 5

4.15 ГБ

В этой теме нет новых непрочитанных сообщений. Герой / Hero [Боевик, драма, мелодрама, 2015] WEB-DLRip 720p, Dvo+Sub

salma3

992 | 205

2.19 ГБ

В этой теме нет новых непрочитанных сообщений. Я твой герой / Main Tera Hero [Боевик, мелодрама, комедия, 2014] HDRip, Mvo+Sub

salma3

4 | 4

2.18 ГБ

В этой теме нет новых непрочитанных сообщений. Герой с плаката / Phata Poster Nikhla Hero [боевик, комедия, 2013] DVDRip, Mvo+Sub

salma3

223 | 25

1.9 ГБ

В этой теме нет новых непрочитанных сообщений. Американский герой / American Hero [фантастика, боевик, комедия, 2015] HDRip, Avo

salma3

4449 | 174

1.37 ГБ

В этой теме нет новых непрочитанных сообщений. Американский герой / American Hero [фантастика, боевик, комедия, 2015] BDRip 720р Avo+Sub

salma3

683 | 115

3.92 ГБ

В этой теме нет новых непрочитанных сообщений. Американский герой / American Hero (Ник Лав / Nick Love) [2015, Фантастика, боевик, комедия, HDRip] avo

Nickolas3435

250 | 9

1.2 ГБ


Начать новую тему Ответить на тему  [ 1 сообщение ] 




Для Мосгорсуда, Роскомнадзора и рекламодателей:: mosgorsud-torrent[собачка]yandex.ru