Торрент файл
скачать торрент магнет ссылка Добавлен: 30 июл 2013, 14:57
Размер: 1.95 ГБ
Сидеров: 8
Личеров: 2
Автор

СообщениеДобавлено: 30 июл 2013, 14:57 

Не в сети
Зам. Админа
Аватара пользователя
Дата регистрации:
02 дек 2010, 12:39
Спасибо: 12460 / 214
Сообщения: 27968


Год выпуска: 2011
Жанр: криминал, драма
В ролях: Скотт Спидман, Келли Райлли, Кевин Дюран, Джозеф Кросс, Брендан Флетчер, Шарлотта Салливан, Мелани Скорфано, Брайан Кокс, Уильям Мапотер, Кристиан Мартин
О Фильме: Ветеран второй мировой войны Эдвин Бойд разрывается между обеспечением своей молодой семьи и нереализованной мечтой стать звездой Голливуда. Он находит способ совместить оба этих занятия, но этот способ ставит его на путь опасности и трагедии.

Страна: Канада
Продолжительность: 01:40:20
Перевод: Авторский (одноголосый, закадровый) - Михаил Чадов

Качество: HDRip-AVC
Формат: MKV
Видео: MPEG4/AVC, 720x304 (2.35:1), 25 fps, 1883 kbps, 0.344 bit/pixel
Аудио 1: 48 kHz, AC3 Dolby Digital, 3/2 (L,C,R,l,r) + LFE ch, 448 kbps | Рус
Аудио 2: 48 kHz, AC3 Dolby Digital, 3/2 (L,C,R,l,r) + LFE ch, 448 kbps | Eng
Субтитры: Английские (UTF-8)
Общее
Уникальный идентификатор : 187722655326584158574475590696230301811 (0x8D3A117CFB94C48B98F0030D1C41B073)
Полное имя : Edwin.Boyd.(2011).HDRip.x264.AC3.mkv
Формат : Matroska
Версия формата : Version 2
Размер файла : 1,95 Гбайт
Продолжительность : 1 ч. 40 м.
Общий поток : 2777 Кбит/сек
Дата кодирования : UTC 2013-07-30 06:32:39
Программа кодирования : mkvmerge v5.8.0 ('No Sleep / Pillow') built on Sep 2 2012 15:37:04
Библиотека кодирования : libebml v1.2.3 + libmatroska v1.3.0
Видео
Идентификатор : 1
Формат : AVC
Формат/Информация : Advanced Video Codec
Профиль формата : High@L4.1
Параметр CABAC формата : Да
Параметр ReFrames формата : 8 кадров
Идентификатор кодека : V_MPEG4/ISO/AVC
Продолжительность : 1 ч. 40 м.
Битрейт : 1883 Кбит/сек
Ширина : 720 пикселей
Высота : 304 пикселя
Соотношение сторон : 2,35:1
Режим частоты кадров : Постоянный
Частота кадров : 25,000 кадров/сек
Цветовое пространство : YUV
Субдискретизация насыщенности : 4:2:0
Битовая глубина : 8 бит
Тип развёртки : Прогрессивная
Бит/(Пиксели*Кадры) : 0.344
Размер потока : 1,28 Гбайт (66%)
Библиотека кодирования : x264 core 125 r2208 d9d2288
Настройки программы : cabac=1 / ref=8 / deblock=1:-1:-1 / analyse=0x3:0x133 / me=umh / subme=10 / psy=1 / psy_rd=1.00:0.10 / mixed_ref=1 / me_range=16 / chroma_me=1 / trellis=2 / 8x8dct=1 / cqm=0 / deadzone=21,11 / fast_pskip=0 / chroma_qp_offset=-3 / threads=3 / lookahead_threads=1 / sliced_threads=0 / nr=0 / decimate=1 / interlaced=0 / bluray_compat=0 / constrained_intra=0 / bframes=3 / b_pyramid=2 / b_adapt=2 / b_bias=0 / direct=3 / weightb=1 / open_gop=0 / weightp=2 / keyint=250 / keyint_min=25 / scenecut=40 / intra_refresh=0 / rc_lookahead=50 / rc=2pass / mbtree=1 / bitrate=1883 / ratetol=1.0 / qcomp=0.60 / qpmin=0 / qpmax=69 / qpstep=4 / cplxblur=20.0 / qblur=0.5 / ip_ratio=1.40 / aq=1:1.00
Язык : English
Default : Да
Forced : Нет
Аудио #1
Идентификатор : 2
Формат : AC-3
Формат/Информация : Audio Coding 3
Расширение режима : CM (complete main)
Параметр Endianness формата : Big
Идентификатор кодека : A_AC3
Продолжительность : 1 ч. 40 м.
Вид битрейта : Постоянный
Битрейт : 448 Кбит/сек
Каналы : 6 каналов
Расположение каналов : Front: L C R, Side: L R, LFE
Частота : 48,0 КГц
Битовая глубина : 16 бит
Метод сжатия : С потерями
Размер потока : 322 Мбайт (16%)
Язык : Russian
Default : Да
Forced : Нет
Аудио #2
Идентификатор : 3
Формат : AC-3
Формат/Информация : Audio Coding 3
Расширение режима : CM (complete main)
Параметр Endianness формата : Big
Идентификатор кодека : A_AC3
Продолжительность : 1 ч. 40 м.
Вид битрейта : Постоянный
Битрейт : 448 Кбит/сек
Каналы : 6 каналов
Расположение каналов : Front: L C R, Side: L R, LFE
Частота : 48,0 КГц
Битовая глубина : 16 бит
Метод сжатия : С потерями
Размер потока : 322 Мбайт (16%)
Язык : English
Default : Нет
Forced : Нет
Текст
Идентификатор : 4
Формат : UTF-8
Идентификатор кодека : S_TEXT/UTF8
Идентификатор кодека/Информация : UTF-8 Plain Text
Язык : English
Default : Нет
Forced : Нет


Релиз от:




реклама партнёра


Вернуться к началу
 Профиль  
 
   Похожие торренты   Автор   Торрент   Размер 
В этой теме нет новых непрочитанных сообщений. Гражданин гангстер / Citizen Gangster [криминал, драма, 2011] HDRip, Mvo

salma3

66 | 3

1.46 ГБ

В этой теме нет новых непрочитанных сообщений. Гражданин / The Citizen (Сэм Кади / Sam Kadi) [2012г., драма, HDRip] АVO + Sub

Alfredovich

7 | 2

794.2 МБ

В этой теме нет новых непрочитанных сообщений. Безымянный гангстер / Bumchoiwaui Junjaeng / Nameless gangster (2012) BDRip 720p, Dvo [НТВ+]+avo+Sub

Dracon

12 | 2

6.38 ГБ

В этой теме нет новых непрочитанных сообщений. Нитти-гангстер / Frank Nitti: The Enforcer [драма, криминал, 1988] DVDRip, Dvo

salma3

68 | 8

1.46 ГБ

В этой теме нет новых непрочитанных сообщений. Гражданин четыре / Citizenfour (Лора Пойтрас) [Документальный, 2014] HDRip, dub [Чистый звук]

Марик

108 | 9

1.45 ГБ

В этой теме нет новых непрочитанных сообщений. Гражданка Рут / Citizen Ruth [драма, комедия, 1996] DVDRip, Dvo

salma3

27 | 4

1.45 ГБ

В этой теме нет новых непрочитанных сообщений. Citizen Way - Love Is The Evidence [2013, Alt.Rock, MP3]

PriZraK

0 | 1

82.08 МБ


Начать новую тему Ответить на тему  [ 1 сообщение ] 




Для Мосгорсуда, Роскомнадзора и рекламодателей:: mosgorsud-torrent[собачка]yandex.ru