Торрент файл
скачать торрент магнет ссылка Добавлен: 26 июл 2013, 16:29
Размер: 1.32 ГБ
Сидеров: 9
Личеров: 3
Автор

СообщениеДобавлено: 26 июл 2013, 16:29 

Не в сети
Зам. Админа
Аватара пользователя
Дата регистрации:
02 дек 2010, 12:39
Спасибо: 12501 / 214
Сообщения: 28038


Год выпуска: 2011
Жанр: Триллер, драма
Режиссер: Ник Гомез
В ролях: Джули Бенц, Николас Шон Гомез, Гэри Коул, Джон Корбетт, Гэри Граббс, Келли Овертон, Кадим Хардисон, Бо Брассо, Бриттни Элгер, Хааз Слейман

О фильме: После того, как судья оправдывает подсудимого, детектив Хатчер становится на путь правосудия. Спустя несколько недель после оправдания, Элиз Лэрд, жена судьи, сталкивается с грабителем и убивает его в доме...

Страна: США
Продолжительность: 01:34:55
Перевод: Профессиональный многоголосый

Качество: BDRip (AVC)
Видео: MPEG-4 AVC, 1600 Кбит/с, 1024x576, 23.976 кадр/с
Аудио #1: Русский (AC3, 2 ch, 192 Кбит/с) / Профессиональный многоголосый
Аудио #2: Английский (AC3, 2 ch, 192 Кбит/с)
Продолжительность: 01:34:55

Семпл




x264 [info]: frame I:1100 Avg QP:14.48 size: 65465
x264 [info]: frame P:28363 Avg QP:17.95 size: 20674
x264 [info]: frame B:107102 Avg QP:18.92 size: 4494
______________________________________________________________________________________
Общее
Уникальный идентификатор : 198575024858959023556709204875578615045 (0x9564289DD5166C4E91414F25E666A505)
Полное имя : D:Mои раздачиRikoshet.2011.BDRip.(AVC)-MediaClub.mkv
Формат : Matroska
Версия формата : Version 2
Размер файла : 1,32 Гбайт
Продолжительность : 1 ч. 34 м.
Общий поток : 1987 Кбит/сек
Название фильма : -=MediaClub-kaspr=-
Дата кодирования : UTC 2013-07-26 10:07:21
Программа кодирования : mkvmerge v5.7.0 ('The Whirlwind') built on Aug 7 2012 14:11:40
Библиотека кодирования : libebml v1.2.3 + libmatroska v1.3.0

Видео
Идентификатор : 1
Формат : AVC
Формат/Информация : Advanced Video Codec
Профиль формата : High@L4.1
Параметр CABAC формата : Да
Параметр ReFrames формата : 9 кадров
Идентификатор кодека : V_MPEG4/ISO/AVC
Битрейт : 1600 Кбит/сек
Ширина : 1024 пикселя
Высота : 576 пикселей
Соотношение сторон : 16:9
Режим частоты кадров : Переменный
Частота кадров в оригинале : 23,976 кадра/сек
Цветовое пространство : YUV
Субдискретизация насыщенности : 4:2:0
Битовая глубина : 8 бит
Тип развёртки : Прогрессивная
Бит/(Пиксели*Кадры) : 0.113
Заголовок : -=MediaClub-kaspr=-
Библиотека кодирования : x264 core 130 r2273 b3065e6
Настройки программы : cabac=1 / ref=9 / deblock=1:-3:-3 / analyse=0x3:0x133 / me=umh / subme=11 / psy=1 / psy_rd=1.00:0.20 / mixed_ref=1 / me_range=32 / chroma_me=1 / trellis=2 / 8x8dct=1 / cqm=0 / deadzone=21,11 / fast_pskip=0 / chroma_qp_offset=-3 / threads=12 / lookahead_threads=3 / sliced_threads=0 / nr=0 / decimate=0 / interlaced=0 / bluray_compat=0 / constrained_intra=0 / bframes=10 / b_pyramid=2 / b_adapt=2 / b_bias=0 / direct=3 / weightb=1 / open_gop=0 / weightp=2 / keyint=250 / keyint_min=23 / scenecut=40 / intra_refresh=0 / rc=2pass / mbtree=0 / bitrate=1600 / ratetol=1.0 / qcomp=0.60 / qpmin=0 / qpmax=69 / qpstep=4 / cplxblur=20.0 / qblur=0.5 / ip_ratio=1.40 / pb_ratio=1.30 / aq=1:1.00
Default : Да
Forced : Да

Аудио #1
Идентификатор : 2
Формат : AC-3
Формат/Информация : Audio Coding 3
Расширение режима : CM (complete main)
Параметр Endianness формата : Big
Идентификатор кодека : A_AC3
Продолжительность : 1 ч. 34 м.
Вид битрейта : Постоянный
Битрейт : 192 Кбит/сек
Каналы : 2 канала
Расположение каналов : Front: L R
Частота : 48,0 КГц
Битовая глубина : 16 бит
Метод сжатия : С потерями
Размер потока : 130 Мбайт (10%)
Язык : Russian
Default : Да
Forced : Да

Аудио #2
Идентификатор : 3
Формат : AC-3
Формат/Информация : Audio Coding 3
Расширение режима : CM (complete main)
Параметр Endianness формата : Big
Идентификатор кодека : A_AC3
Продолжительность : 1 ч. 34 м.
Вид битрейта : Постоянный
Битрейт : 192 Кбит/сек
Каналы : 2 канала
Расположение каналов : Front: L R
Частота : 48,0 КГц
Битовая глубина : 16 бит
Метод сжатия : С потерями
Размер потока : 130 Мбайт (10%)
Язык : English
Default : Нет
Forced : Нет

Меню
00:00:00.000 : en:Chapter 01
00:04:47.537 : en:Chapter 02
00:14:07.930 : en:Chapter 03
00:26:41.850 : en:Chapter 04
00:37:14.273 : en:Chapter 05
00:49:57.285 : en:Chapter 06
01:02:39.130 : en:Chapter 07
01:16:20.826 : en:Chapter 08
01:28:35.268 : en:Chapter 09
01:29:18.603 : en:Chapter 10

Релиз:




реклама партнёра


Вернуться к началу
 Профиль  
 
   Похожие торренты   Автор   Торрент   Размер 
В этой теме нет новых непрочитанных сообщений. Рикошет / Ricochet [Триллер, драма, криминал, детектив, 2011] ВDRip 720р, Mvo

salma3

87 | 42

3.74 ГБ

В этой теме нет новых непрочитанных сообщений. Собственность / Possessions [триллер, драма, 2011] BDRip 1080p, Dvo [[НТВ+]

salma3

1 | 4

7.12 ГБ

В этой теме нет новых непрочитанных сообщений. Неотделимый / Inseparable [Триллер, драма, комедия, 2011] BDRip 1080p, Avo

salma3

36 | 9

7.58 ГБ

В этой теме нет новых непрочитанных сообщений. Маленький убийца / Little Murder [триллер, драма, 2011] BDRip 720p, Mvo [Лицензия]

salma3

8 | 2

4.52 ГБ

В этой теме нет новых непрочитанных сообщений. Маленький убийца / Little Murder [триллер, драма. 2011] BDRip 1080p, Mvo [Лицензия]

salma3

6 | 2

8.89 ГБ

В этой теме нет новых непрочитанных сообщений. Проклятая волна / Плотина 999 / Dam999 [фантастика, триллер, драма, приключения, 2011] BDRip 1080p, Mvo

salma3

6 | 3

10.6 ГБ

В этой теме нет новых непрочитанных сообщений. Коломбиана / Colombiana (Оливье Мегатон) [2011, боевик, триллер, драма, криминал, BDRip 720p] Dub

Nickolas3435

81 | 9

7.29 ГБ


Начать новую тему Ответить на тему  [ 1 сообщение ] 




Для Мосгорсуда, Роскомнадзора и рекламодателей:: mosgorsud-torrent[собачка]yandex.ru