Торрент файл
скачать торрент магнет ссылка Добавлен: 25 июл 2013, 21:24
Размер: 2.1 ГБ
Сидеров: 4
Личеров: 3
Статус: (salma3)
Автор

СообщениеДобавлено: 25 июл 2013, 21:24 

Не в сети
Зам. Админа
Аватара пользователя
Дата регистрации:
02 дек 2010, 12:39
Спасибо: 12461 / 214
Сообщения: 27968


Год выхода: 2011
Жанр: Триллер, криминал, комедия
Режиссер: Майкл Уинник
В ролях: Гари Олдман, Кристиан Слэйтер, Пауэрс Бут, Дейн Кук, Меган Парк, Сэм Траммелл, Джефф Фэйи, Хелена Мэттссон, Эдди Спирс, Крис Кэттэн

О фильме:
Джону Смиту не очень-то везло в последнее время, но он верил в народную мудрость, что жизнь — это тельняшка, и за черной полосой обязательно последует белая. Однако на этот раз мудрость не сработала. Джон Смит оказался в плохое время в плохом месте. Из казино, где он пытался поправить свое финансовое положение, во время игры в покер украли бесценный индейский артефакт. Как гласит предание, эта священная маска легендарного воина племени сиу способна подарить своему обладателю удачу и бессмертие. Охотников за счастьем подсобралось немало, и все они стопроцентно уверены, что вор — Джон Смит. Разношерстная компания — двойники Элвиса Пресли, индейцы, ковбои, блондинка-киллерша, коррумпированные полицейские, проститутка и даже злобный карлик — бросается за ним в погоню…



Страна: США
Студия: Hollywood Sky Entertainment, Freefall Films
Продолжительность: 01:25:44
Перевод: Дублированный

Кодек: MPEG-4 AVC
Качество: HDTVRip (AVC)
Видео: 2600 Кбит/с, 1024x576, 25.000 кадр/с
Звук:
Аудио #1: Русский (AC3, 6 ch, 448 Кбит/с)
Аудио #2: Английский (AC3, 6 ch, 448 Кбит/с)

Семпл


Общее
Полное имя : Pushki.telki.i.azart.2011.x264.HDTVRip(AVC).MediaClub.mkv
Формат : Matroska
Версия формата : Version 2
Размер файла : 2,10 Гбайт
Продолжительность : 1 ч. 25 м.
Общий поток : 3511 Кбит/сек
Дата кодирования : UTC 2013-07-25 13:51:02
Программа кодирования : mkvmerge v5.4.0 ('Piper') built on Mar 10 2012 13:34:39
Библиотека кодирования : libebml v1.2.3 + libmatroska v1.3.0

Видео
Идентификатор : 1
Формат : AVC
Формат/Информация : Advanced Video Codec
Профиль формата : High@L4.1
Параметр CABAC формата : Да
Параметр ReFrames формата : 9 кадров
Идентификатор кодека : V_MPEG4/ISO/AVC
Продолжительность : 1 ч. 25 м.
Битрейт : 2600 Кбит/сек
Ширина : 1024 пикселя
Высота : 576 пикселей
Соотношение сторон : 16:9
Режим частоты кадров : Постоянный
Частота кадров : 25,000 кадров/сек
Цветовое пространство : YUV
Субдискретизация насыщенности : 4:2:0
Битовая глубина : 8 бит
Тип развёртки : Прогрессивная
Бит/(Пиксели*Кадры) : 0.176
Размер потока : 1,52 Гбайт (72%)
Библиотека кодирования : x264 core 125 r2208 d9d2288
Настройки программы : cabac=1 / ref=9 / deblock=1:-2:-2 / analyse=0x3:0x133 / me=umh / subme=10 / psy=1 / psy_rd=1.00:0.15 / mixed_ref=1 / me_range=32 / chroma_me=1 / trellis=2 / 8x8dct=1 / cqm=0 / deadzone=21,11 / fast_pskip=0 / chroma_qp_offset=-3 / threads=6 / lookahead_threads=1 / sliced_threads=0 / nr=0 / decimate=0 / interlaced=0 / bluray_compat=0 / constrained_intra=0 / bframes=8 / b_pyramid=2 / b_adapt=2 / b_bias=0 / direct=3 / weightb=1 / open_gop=0 / weightp=2 / keyint=250 / keyint_min=25 / scenecut=40 / intra_refresh=0 / rc=2pass / mbtree=0 / bitrate=2600 / ratetol=1.0 / qcomp=0.60 / qpmin=0 / qpmax=69 / qpstep=4 / cplxblur=20.0 / qblur=0.5 / ip_ratio=1.40 / pb_ratio=1.30 / aq=1:0.80
Default : Да
Forced : Нет

Аудио #1
Идентификатор : 2
Формат : AC-3
Формат/Информация : Audio Coding 3
Расширение режима : CM (complete main)
Параметр Endianness формата : Big
Идентификатор кодека : A_AC3
Продолжительность : 1 ч. 25 м.
Вид битрейта : Постоянный
Битрейт : 448 Кбит/сек
Каналы : 6 каналов
Расположение каналов : Front: L C R, Side: L R, LFE
Частота : 48,0 КГц
Битовая глубина : 16 бит
Метод сжатия : С потерями
Размер потока : 275 Мбайт (13%)
Язык : Russian
Default : Да
Forced : Нет

Аудио #2
Идентификатор : 3
Формат : AC-3
Формат/Информация : Audio Coding 3
Расширение режима : CM (complete main)
Параметр Endianness формата : Big
Идентификатор кодека : A_AC3
Продолжительность : 1 ч. 25 м.
Вид битрейта : Постоянный
Битрейт : 448 Кбит/сек
Каналы : 6 каналов
Расположение каналов : Front: L C R, Side: L R, LFE
Частота : 48,0 КГц
Битовая глубина : 16 бит
Метод сжатия : С потерями
Задержка видео : 25 мс.
Размер потока : 275 Мбайт (13%)
Язык : English
Default : Нет
Forced : Нет


Релиз от:




реклама партнёра


Вернуться к началу
 Профиль  
 
   Похожие торренты   Автор   Торрент   Размер 
В этой теме нет новых непрочитанных сообщений. Пушки телки и азарт / Guns Girls and Gambling [Триллер, криминал, 2011] BDRemux 1080p, Dub [Лицензия]

salma3

166 | 48

14.22 ГБ

В этой теме нет новых непрочитанных сообщений. Братва, пушки и зомби / Gangsters, Guns and Zombies [ужасы, комедия, 2012] DVDRip, Avo [Xixidok]

salma3

5 | 2

1.21 ГБ

В этой теме нет новых непрочитанных сообщений. Братва, пушки и зомби / Gangsters, Guns and Zombies [ужасы, комедия, 2012] BDRip 720p, Avo

salma3

15 | 2

4.49 ГБ

В этой теме нет новых непрочитанных сообщений. Tommy Shaw (Styx) - Girls With Guns / What If (Remastered, 2CD) [2013, Melodic Rock, AOR, MP3]

PriZraK

0 | 1

171.1 МБ

В этой теме нет новых непрочитанных сообщений. Крутые стволы / Mean Guns [боевик, триллер, криминал, 1997] BDRip 1080p, Mvo+Sub

salma3

43 | 8

12.33 ГБ

В этой теме нет новых непрочитанных сообщений. Молодые стрелки / Young Guns [Боевик, Триллер, Вестерн, Криминал, 1988] Blu-ray 1080p, Dvo+Sub

salma3

1 | 1

21.58 ГБ

В этой теме нет новых непрочитанных сообщений. Молодые стрелки / Young Guns [Боевик, Триллер, Вестерн, Криминал, 1988] BDRip 720p, Dvo+Avo

salma3

0 | 0

5.18 ГБ


Начать новую тему Ответить на тему  [ 1 сообщение ] 




Для Мосгорсуда, Роскомнадзора и рекламодателей:: mosgorsud-torrent[собачка]yandex.ru