Торрент файл
скачать торрент магнет ссылка Добавлен: 25 июл 2013, 16:03
Размер: 1.25 ГБ
Сидеров: 0
Личеров: 4
Автор

СообщениеДобавлено: 25 июл 2013, 16:03 

Не в сети
Зам. Админа
Аватара пользователя
Дата регистрации:
02 дек 2010, 12:39
Спасибо: 12461 / 214
Сообщения: 27968


Год выпуска: 2013
Страна: США, Великобритания
Режиссер: Стивен Найт
Жанр: боевик, триллер
Продолжительность: 01:40:23

В ролях: Джейсон Стэйтем, Ли Асквит-Коу, Вики МакКлюр, Йен Пири, Бенедикт Вонг, Сенем Темиз, Шиван Хьюлетт, Пол Блэкуэлл, Агата Бузек, Эдди Рубен

Описание: Бывший спецназовец Джоуи Джонс пытается начать новую жизнь. Он соглашается работать на азиатскую мафию. Но проникая все глубже в криминальный мир родного города, он понимает, что не может спокойно смотреть на творящееся в нем беззаконие. Когда от рук бандитов погибает его возлюбленная Изабель, Джоуи решает восстановить справедливость. Он начинает расследование, которое ведет его на самый верх преступного синдиката.

Перевод: Профессиональный (полное дублирование)[Лицензия]
Cубтитры: отсутствуют



Формат: DVDRip, AVI, XviD, MP3
Видео: 720x320 (2.25:1), 23.976 fps, XviD build 64 ~1647 kbps avg, 0.30 bit/pixel
Аудио: 48 kHz, MPEG Layer 3, 2 ch, ~128.00 kbps avg

Общее
Полное имя : D:\Фильмы\Kolibri.E.2013.D.DVDRip[Deadmauvlad].avi
Формат : AVI
Формат/Информация : Audio Video Interleave
Профиль формата : OpenDML
Размер файла : 1,25 Гбайт
Продолжительность : 1 ч. 40 м.
Общий поток : 1783 Кбит/сек
Название фильма : Kolibri.E.2013.D.DVDRip
Режиссёр : ~Deadmauvlad~
Жанр : Боевик
Программа кодирования : VirtualDubMod 1.5.10.3
Формат оригинала/Имя : Фильм

Видео
Идентификатор : 0
Формат : MPEG-4 Visual
Профиль формата : Advanced Simple@L5
Параметр BVOP формата : 2
Параметр QPel формата : Нет
Параметр GMC формата : Без точки перехода
Параметр матрицы формата : Default (H.263)
Идентификатор кодека : XVID
Идентификатор кодека/Подсказка : XviD
Продолжительность : 1 ч. 40 м.
Битрейт : 1639 Кбит/сек
Ширина : 720 пикселей
Высота : 320 пикселей
Соотношение сторон : 2,35:1
Частота кадров : 23,976 кадра/сек
Цветовое пространство : YUV
Субдискретизация насыщенности : 4:2:0
Битовая глубина : 8 бит
Тип развёртки : Прогрессивная
Метод сжатия : С потерями
Бит/(Пиксели*Кадры) : 0.297
Размер потока : 1,15 Гбайт (92%)
Библиотека кодирования : XviD 64

Аудио
Идентификатор : 1
Формат : MPEG Audio
Версия формата : Version 1
Профиль формата : Layer 3
Режим : Joint stereo
Идентификатор кодека : 55
Идентификатор кодека/Подсказка : MP3
Продолжительность : 1 ч. 40 м.
Вид битрейта : Постоянный
Битрейт : 128 Кбит/сек
Каналы : 2 канала
Частота : 48,0 КГц
Метод сжатия : С потерями
Размер потока : 91,9 Мбайт (7%)
Выравнивание : Соединение по промежуткам
Продолжительность промежутка : 24 мс. (0,58 видеокадр)
Библиотека кодирования : LAME3.99.4


Доп. информация: Исходник зарубежный DVD + Прикрутим русский дубляж пожалуйста при перезаливки на другие трекеры не меняйте имя файла














реклама партнёра


Вернуться к началу
 Профиль  
 
   Похожие торренты   Автор   Торрент   Размер 
В этой теме нет новых непрочитанных сообщений. Эффект спускового курка / The Trigger Effect (Дэвид Кепп / David Koepp) [1996г., триллер, драма, DVDRip] MVO+DVO

Alfredovich

118 | 117

1.88 ГБ

В этой теме нет новых непрочитанных сообщений. Сезон убийц / Killing Season [Боевик, Триллер, 2013] Blu-Ray, Mvo [Лицензия]

Dracon

0 | 2

18.58 ГБ

В этой теме нет новых непрочитанных сообщений. Джо / Joe [боевик, триллер, драма, криминал, 2013] BDRip 720p, Mvo+Sub [лицензия]

Dracon

674 | 31

5.83 ГБ

В этой теме нет новых непрочитанных сообщений. Олдбой / Oldboy [Боевик, Детектив, Триллер, 2013] HDRip, dub [Лицензия]

Dracon

828 | 11

1.46 ГБ

В этой теме нет новых непрочитанных сообщений. Колония / The Colony [Фантастика, боевик, триллер, 2013] HDRip, Dub [Лицензия]

Dracon

514 | 24

1.46 ГБ

В этой теме нет новых непрочитанных сообщений. Олдбой / Oldboy [Боевик, Детектив, Триллер, 2013] BDRip 1080p, dub [Лицензия]

Dracon

79 | 3

11.35 ГБ

В этой теме нет новых непрочитанных сообщений. Колония / The Colony [Фантастика, боевик, триллер, 2013] BDRip 1080p, Dub+Sub [Лицензия]

Dracon

186 | 19

7.15 ГБ


Начать новую тему Ответить на тему  [ 1 сообщение ] 




Для Мосгорсуда, Роскомнадзора и рекламодателей:: mosgorsud-torrent[собачка]yandex.ru