Торрент файл
скачать торрент магнет ссылка Добавлен: 25 июл 2013, 10:47
Размер: 1.46 ГБ
Сидеров: 931
Личеров: 44
Статус: (salma3)
Автор

СообщениеДобавлено: 25 июл 2013, 10:47 

Не в сети
Зам. Админа
Аватара пользователя
Дата регистрации:
02 дек 2010, 12:39
Спасибо: 12460 / 214
Сообщения: 27968
«The story of Halo begins at dawn.»



Страна: США / 343 Industries, Laskey Productions
Жанр: фантастика, боевик, триллер
Год выпуска: 2012
Продолжительность: 01:31:23

Перевод: Профессиональный (многоголосый, закадровый)
Оригинальная аудиодорожка: нет
Субтитры: русский

Режиссер: Стюарт Хендлер / Stewart Hendler

В ролях: Анна Попплуэлл, Том Грин, Эниша Брюстер, Айелет Зурер, Масам Холден, Майк Допуд, Айэйн Белчер, Осрик Чау, Катерина Кателиева, Дэниэл Кадмор...

Описание: Эта история возвращает игроков к началу войны между людьми и Ковенантами и подводит к событиям, происходящим в игре Halo 4. В стенах военной академии Космического Командования Объединённых Наций (UNSC) группу курсантов знатного происхождения готовят стать следующим поколением солдат в надвигающейся войне между UNCS и повстанцами на колониальных планетах. Один из кадетов, Томас Ласки, ведет внутреннюю борьбу, преодолевая сомнения по поводу войны и опасения не оправдать высоких ожиданий командования. К тому моменту, как Ласки смирился со своей ролью будущего командира, ужасающее войско альянса Ковенант вторгается на планету и переворачивает привычный мир героя с ног на голову. Вдохновлённый подвигами Мастера Чифа, Ласки должен на собственном опыте узнать, что значит быть героем.






Исходник: BDRemux 1080p
Качество: BDRip
Формат: AVI

Видео: 720x304 (2.35:1), 23.976 fps, XViD ~ 1825 kbps avg, 0.384 bit/pixel
Аудио: 48 kHz, АС3 6 ch, 448 kbps, русский
Формат субтитров: SoftSub (srt)

Раздача от:
Общее
Полное имя : Halo.4.Idushii.k.rassvetu.2012.P.BDRip_[Youtracker]_by_avproh.avi
Формат : AVI
Формат/Информация : Audio Video Interleave
Размер файла : 1,46 Гбайт
Продолжительность : 1 ч. 31 м.
Общий поток : 2282 Кбит/сек
Программа кодирования : VirtualDubModRus 1.5.10.2 (build 2542/release)
Библиотека кодирования : VirtualDubMod build 2542/release

Видео
Идентификатор : 0
Формат : MPEG-4 Visual
Профиль формата : Advanced Simple@L5
Параметр BVOP формата : 1
Параметр QPel формата : Нет
Параметр GMC формата : Без точки перехода
Параметр матрицы формата : Выборочная
Идентификатор кодека : XVID
Идентификатор кодека/Подсказка : XviD
Продолжительность : 1 ч. 31 м.
Битрейт : 1825 Кбит/сек
Ширина : 720 пикселей
Высота : 304 пикселя
Соотношение сторон : 2,35:1
Частота кадров : 23,976 кадра/сек
Цветовое пространство : YUV
Субдискретизация насыщенности : 4:2:0
Битовая глубина : 8 бит
Тип развёртки : Прогрессивная
Метод сжатия : С потерями
Бит/(Пиксели*Кадры) : 0.348
Размер потока : 1,16 Гбайт (80%)
Библиотека кодирования : XviD 65

Аудио
Идентификатор : 1
Формат : AC-3
Формат/Информация : Audio Coding 3
Расширение режима : CM (complete main)
Параметр Endianness формата : Big
Идентификатор кодека : 2000
Продолжительность : 1 ч. 31 м.
Вид битрейта : Постоянный
Битрейт : 448 Кбит/сек
Каналы : 6 каналов
Расположение каналов : Front: L C R, Side: L R, LFE
Частота : 48,0 КГц
Битовая глубина : 16 бит
Метод сжатия : С потерями
Размер потока : 293 Мбайт (20%)
Выравнивание : Разделение по промежуткам
Продолжительность промежутка : 42 мс. (1,00 видеокадр)
Время предзагрузки промежутка : 500 мс.






реклама партнёра


Вернуться к началу
 Профиль  
 
   Похожие торренты   Автор   Торрент   Размер 
В этой теме нет новых непрочитанных сообщений. Halo: Падение Предела / Halo: The Fall of Reach (Йен Кирби) [Фантастика, анимация, экшен, 2015] BDRip-AVC, Mvo+Sub

Dracon

1783 | 56

1.38 ГБ

В этой теме нет новых непрочитанных сообщений. Halo: Сумерки / Halo: Nightfall (Серджо Мимика-Геззан) [Фантастика, боевик, триллер, приключения, 2014] BDRip 1080p, Mvo

Dracon

140 | 52

8.05 ГБ

В этой теме нет новых непрочитанных сообщений. Halo: Падение Предела / Halo: The Fall of Reach (Йен Кирби) [Фантастика, анимация, экшен, 2015] HDRip, Mvo

Dracon

3869 | 202

1.37 ГБ

В этой теме нет новых непрочитанных сообщений. Halo: Сумерки / Halo: Nightfall (Серджо Мимика-Геззан) [Фантастика, боевик, триллер, приключения, 2014] HDRip, Mvo

Dracon

36 | 2

1.37 ГБ

В этой теме нет новых непрочитанных сообщений. Halo: Сумерки / Halo: Nightfall (Серджо Мимика-Геззан) [Фантастика, боевик, триллер, приключения, 2014] HDRip, Mvo

Dracon

4 | 2

700.19 МБ

В этой теме нет новых непрочитанных сообщений. Halo: Сумерки / Halo: Nightfall [s01] (Серджо Мимика-Геззан) [2014, фантастика, боевик, триллер, приключения, WEBRip | AlexFilm]

Nickolas3435

442 | 36

1.52 ГБ

В этой теме нет новых непрочитанных сообщений. The Cruxshadows - As The Dark Against My Halo [2012, Darkwave, Gothic Rock, MP3]

PriZraK

0 | 2

177.99 МБ


Начать новую тему Ответить на тему  [ 1 сообщение ] 




Для Мосгорсуда, Роскомнадзора и рекламодателей:: mosgorsud-torrent[собачка]yandex.ru