Торрент файл
скачать торрент магнет ссылка Добавлен: 24 июл 2013, 09:46
Размер: 744.53 МБ
Сидеров: 18
Личеров: 2
Статус: (salma3)
Автор

СообщениеДобавлено: 24 июл 2013, 09:46 

Не в сети
Зам. Админа
Аватара пользователя
Дата регистрации:
02 дек 2010, 12:39
Спасибо: 12623 / 214
Сообщения: 28012


Год выхода: 2012
Жанр: ужасы
Режиссер: Колин Тейс / Colin Theys
В ролях: Джесси Джеймс, Магда Апанович, Билл Моусли, Джеральдин Хьюз, Ной Флайсс, Джейден Кейн, Дж.Х. Торранс Даунс, Элизабет Ирен, Kyle Donnery, Бриджет Меган Кларк

О фильме:
В свой 18-й день рождения Джонни Петри узнает, что унаследовал в штате Мэн ферму, заброшенную на эти 18 лет, с момента страшной гибели его семьи от рук его же отца, местного пастора. Стремясь к переменам, Джонни переезжает, чтобы начать новую жизнь в своем новом жилище. Однако, начав копаться в прошлом, он неожиданно раскрывает ужасные подробности сомнительного учения своего отца. Помимо этого пугающего открытия, он осознает и то, что его опрометчивое возвращение оживило древнее зло, притаившееся в ловушке дома, запустив тем самым зловещий ритуал, унесший жизни членов его семьи.



Страна: США
Студия: Synthetic Cinema International
Продолжительность: 01:32:16
Перевод: Любительский (двухголосый закадровый) den904, DeadSno

Кодек: XviD
Качество: HDRip (Исх. BDRip 720p)
Видео: 656x368 (1.78:1), 23.976 fps, XviD build 50 ~991 kbps avg, 0.17 bit/pixel
Звук: 48 kHz, MPEG Layer 3, 2 ch, ~128.00 kbps avg
Субтитры: нет

Семпл

Общее
Полное имя : S:ФильмыМертвые души .2012. HDRip. (AleksSin) (1).avi
Формат : AVI
Формат/Информация : Audio Video Interleave
Размер файла : 745 Мбайт
Продолжительность : 1 ч. 32 м.
Общий поток : 1128 Кбит/сек
Программа кодирования : VirtualDubMod 1.5.10.3 | http://www.virtualdub-fr.org || (build 2550/release)
Библиотека кодирования : VirtualDubMod build 2550/release

Видео
Идентификатор : 0
Формат : MPEG-4 Visual
Профиль формата : Advanced Simple@L5
Параметр BVOP формата : 2
Параметр QPel формата : Нет
Параметр GMC формата : Без точки перехода
Параметр матрицы формата : Default (H.263)
Идентификатор кодека : XVID
Идентификатор кодека/Подсказка : XviD
Продолжительность : 1 ч. 32 м.
Битрейт : 991 Кбит/сек
Ширина : 656 пикс.
Высота : 368 пикс.
Соотношение сторон : 16:9
Частота кадров : 23,976 кадр/сек
Цветовое пространство : YUV
Подвыборка цветности : 4:2:0
Битовая глубина : 8 бит
Тип развёртки : Прогрессивная
Метод сжатия : С потерями
Бит/(Пиксели*Кадры) : 0.171
Размер потока : 654 Мбайт (88%)
Библиотека кодирования : XviD 1.2.1 (UTC 2008-12-04)

Аудио
Идентификатор : 1
Формат : MPEG Audio
Версия формата : Version 1
Профиль формата : Layer 3
Идентификатор кодека : 55
Идентификатор кодека/Подсказка : MP3
Продолжительность : 1 ч. 32 м.
Вид битрейта : Постоянный
Битрейт : 128 Кбит/сек
Каналы : 2 канала
Частота : 48,0 КГц
Метод сжатия : С потерями
Размер потока : 84,5 Мбайт (11%)
Выравнивание : Соединение по промежуткам
Продолжительность промежутка : 42 мс. (1,00 видеокадр)
Время предзагрузки промежутка : 504 ms
Библиотека кодирования : LAME3.99r
Настройки программы : -m s -V 4 -q 2 -lowpass 17 -b 128





Релиз от:




реклама партнёра


Вернуться к началу
 Профиль  
 
   Похожие торренты   Автор   Торрент   Размер 
В этой теме нет новых непрочитанных сообщений. Мёртвые, проклятые и тьма / The Dead the Damned and the Darkness (Рене Перез) [Ужасы, Боевик, Триллер, 2014] HDRip, avo

Dracon

5 | 3

1.38 ГБ

В этой теме нет новых непрочитанных сообщений. Мёртвые и покинутые / Abandoned Dead [ужасы, триллер, криминал, 2016] WEBRip, dvo

marya111

0 | 0

1.44 ГБ

В этой теме нет новых непрочитанных сообщений. Мертвые и гниющие / Dead and Rotting [ужасы, трэш, комедия, 2002] DVDRip, Avo

salma3

112 | 25

1.45 ГБ

В этой теме нет новых непрочитанных сообщений. Мёртвые, проклятые и тьма / The Dead the Damned and the Darkness [Ужасы, 2014] BRRip 720р, Avo

salma3

912 | 93

2.27 ГБ

В этой теме нет новых непрочитанных сообщений. Мёртвые земли / The Dead Lands (Тоа Фрейзер) [Боевик, Триллер, 2014] HDRip [BaibaKo]

Dracon

0 | 0

2.06 ГБ

В этой теме нет новых непрочитанных сообщений. Мёртвые земли / The Dead Lands (Тоа Фрейзер) [Боевик, Триллер, 2014] HDRip [BaibaKo]

Dracon

3411 | 86

1.46 ГБ

В этой теме нет новых непрочитанных сообщений. Мёртвые земли / The Dead Lands (Тоа Фрейзер) [Боевик, Триллер, 2014] HDRip [ColdFilm]

Dracon

59 | 0

1.46 ГБ


Начать новую тему Ответить на тему  [ 1 сообщение ] 




Для Мосгорсуда, Роскомнадзора и рекламодателей:: mosgorsud-torrent[собачка]yandex.ru