Торрент файл
скачать торрент магнет ссылка Добавлен: 24 июл 2013, 09:19
Размер: 1.47 ГБ
Сидеров: 4
Личеров: 2
Автор

СообщениеДобавлено: 24 июл 2013, 09:19 

Не в сети
Зам. Админа
Аватара пользователя
Дата регистрации:
02 дек 2010, 12:39
Спасибо: 12460 / 214
Сообщения: 27968

Год выпуска: 2013
Производство: США, Франция
Жанр: Триллер, Ужасы, Боевик
Продолжительность: 01:25:11
Перевод: Дублированный [с iTunes Russia]
Субтитры: Отсутствуют

Дата мировой премьеры: 2 мая 2013
Дата российской премьеры: 12 июня 2013

Режиссер: Джеймс ДеМонако



В ролях: Итан Хоук, Лина Хиди, Аделаида Кэйн, Макс Буркхолдер, Эдвин Ходж, Тони Оллер, Риз Уэйкфилд, Джон Уэселкауч

Описание фильма:Мир будущего — мир без преступности… безработицы… войн. И все это благодаря одной ночи в году, когда можно отправить на тот свет любого — злобного босса, шумных соседей, надоевших родственников. В Судную ночь дозволено все — главное дожить до рассвета.

Автор:

Качество: WEB-DLRip-AVC
Видео: 1104х464, ~2077 Кбит/сек
Аудио: AC3 5.1, 384 Кбит/сек
Семпл

Формат : Matroska
Версия формата : Version 2
Размер файла : 1,47 Гбайт
Продолжительность : 1 ч. 25 м.
Общий поток : 2463 Кбит/сек
Дата кодирования : UTC 2013-07-24 01:37:25
Программа кодирования : mkvmerge v4.0.0 ('The Stars were mine') сборка от Jun 11 2010 23:24:27
Библиотека кодирования : libebml v1.0.0 + libmatroska v1.0.0
Attachment : Yes

Видео
Идентификатор : 1
Формат : AVC
Формат/Информация : Advanced Video Codec
Профиль формата : High@L4.1
Параметр CABAC формата : Да
Параметр ReFrames формата : 5 кадров
Идентификатор кодека : V_MPEG4/ISO/AVC
Продолжительность : 1 ч. 25 м.
Битрейт : 2077 Кбит/сек
Ширина : 1104 пикселя
Высота : 464 пикселя
Соотношение сторон : 2,40:1
Режим частоты кадров : Постоянный
Частота кадров : 23,976 кадра/сек
Цветовое пространство : YUV
Субдискретизация насыщенности : 4:2:0
Битовая глубина : 8 бит
Тип развёртки : Прогрессивная
Бит/(Пиксели*Кадры) : 0.169
Размер потока : 1,21 Гбайт (82%)
Библиотека кодирования : x264 core 133 r2334 a3ac64b
Настройки программы : cabac=1 / ref=5 / deblock=1:-2:-1 / analyse=0x3:0x133 / me=umh / subme=9 / psy=1 / psy_rd=1.02:0.04 / mixed_ref=1 / me_range=24 / chroma_me=1 / trellis=2 / 8x8dct=1 / cqm=0 / deadzone=21,11 / fast_pskip=1 / chroma_qp_offset=-3 / threads=12 / lookahead_threads=1 / sliced_threads=0 / nr=0 / decimate=1 / interlaced=0 / bluray_compat=0 / constrained_intra=0 / bframes=5 / b_pyramid=2 / b_adapt=2 / b_bias=0 / direct=3 / weightb=1 / open_gop=0 / weightp=2 / keyint=240 / keyint_min=23 / scenecut=40 / intra_refresh=0 / rc_lookahead=40 / rc=2pass / mbtree=1 / bitrate=2077 / ratetol=1.0 / qcomp=0.60 / qpmin=0 / qpmax=69 / qpstep=4 / cplxblur=20.0 / qblur=0.5 / ip_ratio=1.40 / aq=1:1.00
Язык : English
Default : Да
Forced : Нет

Аудио
Идентификатор : 2
Формат : AC-3
Формат/Информация : Audio Coding 3
Расширение режима : CM (complete main)
Параметр Endianness формата : Big
Идентификатор кодека : A_AC3
Продолжительность : 1 ч. 25 м.
Вид битрейта : Постоянный
Битрейт : 384 Кбит/сек
Каналы : 6 каналов
Расположение каналов : Front: L C R, Side: L R, LFE
Частота : 48,0 КГц
Битовая глубина : 16 бит
Метод сжатия : С потерями
Размер потока : 234 Мбайт (16%)
Default : Да
Forced : Нет




реклама партнёра


Вернуться к началу
 Профиль  
 
   Похожие торренты   Автор   Торрент   Размер 
В этой теме нет новых непрочитанных сообщений. Судная ночь 2 / The Purge: Anarchy [триллер, криминал, боевик, 2014] WEB-DLRip, Dub [iTunes]

Dracon

4263 | 102

1.46 ГБ

В этой теме нет новых непрочитанных сообщений. Судная ночь 2 / The Purge: Anarchy Судная ночь 2 / The Purge: Anarchy [триллер, криминал, боевик, 2014] BDRip 720p, Dub+Sub [Лицензия]

Dracon

3 | 3

7.02 ГБ

В этой теме нет новых непрочитанных сообщений. Судная ночь 3 / The Purge: Election Year [ужасы, фантастика, боевик, триллер, 2016] HDRip, dub [iTunes]

marya111

86 | 9

2.06 ГБ

В этой теме нет новых непрочитанных сообщений. Судная ночь 3 / The Purge: Election Year [ужасы, фантастика, боевик, триллер, 2016] HDRip, Dub [iTunes]

marya111

397 | 77

1.45 ГБ

В этой теме нет новых непрочитанных сообщений. Судная ночь 3 / The Purge: Election Year [Ужасы, фантастика, боевик, триллер, 2016] HDRip, Dub [iTunes]

marya111

0 | 0

747.6 МБ

В этой теме нет новых непрочитанных сообщений. Судная ночь 3 / The Purge: Election Year [ужасы, фантастика, боевик, триллер, 2016] BDRip 720p, Dub [iTunes]

salma3

78 | 8

5.75 ГБ

В этой теме нет новых непрочитанных сообщений. Судная ночь 3 / The Purge: Election Year [ужасы, фантастика, боевик, триллер, 2016] BDRip 720p, Dub [iTunes]

marya111

626 | 22

7.16 ГБ


Начать новую тему Ответить на тему  [ 1 сообщение ] 




Для Мосгорсуда, Роскомнадзора и рекламодателей:: mosgorsud-torrent[собачка]yandex.ru