Торрент файл
скачать торрент магнет ссылка Добавлен: 23 июл 2013, 20:41
Размер: 1.48 ГБ
Сидеров: 22
Личеров: 6
Автор

СообщениеДобавлено: 23 июл 2013, 20:41 

Не в сети
Зам. Админа
Аватара пользователя
Дата регистрации:
02 дек 2010, 12:39
Спасибо: 12461 / 214
Сообщения: 27968


Год выпуска: 2012
Жанр: Боевик, криминал
Выпущено: Франция, Бельгия, Италия, Babe Film, Ran Entertainment, Climax Films
Режиссер: Микеле Плачидо
В ролях: Даниель Отой, Матьё Кассовиц, Оливье Гурме, Франсис Рено, Николя Бриансон, Жером Пули, Виоланте Плачидо, Лука Арджентеро, Арли Жовер, Кристиан Эк

О фильме: Комиссар Маттеи уже несколько месяцев преследует банду грабителей банков. Во время очередного ограбления банду вот-вот накроют, но уйти бандитам помогает таинственный снайпер, без промаха ранящий полицейских. После анонимного звонка удаётся арестовать пресловутого снайпера, но тому удаётся бежать, чтобы вычислить предателя. Когда Маттеи узнаёт, что снайпер повинен в смерти его сына во время операции в Афганистане, дело становится личным.



Выпущено: Франция, Бельгия, Италия, Babe Film, Ran Entertainment, Climax Films
Продолжительность: 01:28:35
Перевод: Профессиональный многоголосый
Субтитры: Русские, английские
Дата релиза: 21.07.2013

Кодек: H264
Качество: BDRip (AVC)
Видео: MPEG-4 AVC, 2200 Кбит/с, 1024x436
Звук: AC3, 2 ch, 192 Кбит/с

Семпл

Общее
Уникальный идентификатор : 231113131872903297032332003300208411598 (0xADDEC526AEFCD03B80C213A4304E03CE)
Полное имя : E:Nabljudatel.2012.x264.BDRip.(AVC).ExKinoRay.mkv
Формат : Matroska
Размер файла : 1,48 Гбайт
Продолжительность : 1 ч. 28 м.
Общий поток : 2393 Кбит/сек
Название фильма : Nabljudatel.2012.x264.BDRip.(AVC).ExKinoRay
Дата кодирования : UTC 2013-07-21 09:19:49
Программа кодирования : mkvmerge v4.0.0 ('The Stars were mine') сборка от Jun 6 2010 16:18:42
Библиотека кодирования : libebml v1.0.0 + libmatroska v1.0.0

Видео
Идентификатор : 1
Формат : AVC
Формат/Информация : Advanced Video Codec
Профиль формата : High@L4.1
Параметр CABAC формата : Да
Параметр ReFrames формата : 8 кадров
Идентификатор кодека : V_MPEG4/ISO/AVC
Продолжительность : 1 ч. 28 м.
Битрейт : 2200 Кбит/сек
Ширина : 1024 пикс.
Высота : 436 пикс.
Соотношение сторон : 2,35:1
Частота кадров : 24,000 кадр/сек
Цветовое пространство : YUV
Подвыборка цветности : 4:2:0
Битовая глубина : 8 бит
Тип развёртки : Прогрессивная
Бит/(Пиксели*Кадры) : 0.205
Размер потока : 1,33 Гбайт (90%)
Заголовок : Rip by Enigma-Vladislav71
Библиотека кодирования : x264 core 129 r2245 bc13772
Настройки программы : cabac=1 / ref=8 / deblock=1:-2:-2 / analyse=0x3:0x133 / me=umh / subme=11 / psy=1 / psy_rd=1.00:0.00 / mixed_ref=1 / me_range=48 / chroma_me=1 / trellis=2 / 8x8dct=1 / cqm=0 / deadzone=21,11 / fast_pskip=0 / chroma_qp_offset=-2 / threads=3 / lookahead_threads=1 / sliced_threads=0 / nr=0 / decimate=0 / interlaced=0 / bluray_compat=0 / constrained_intra=0 / bframes=8 / b_pyramid=2 / b_adapt=2 / b_bias=0 / direct=3 / weightb=1 / open_gop=0 / weightp=2 / keyint=240 / keyint_min=23 / scenecut=40 / intra_refresh=0 / rc_lookahead=40 / rc=2pass / mbtree=1 / bitrate=2200 / ratetol=1.0 / qcomp=0.60 / qpmin=10 / qpmax=51 / qpstep=4 / cplxblur=20.0 / qblur=0.5 / ip_ratio=1.40 / aq=2:1.00
Язык : English

Аудио
Идентификатор : 2
Формат : AC-3
Формат/Информация : Audio Coding 3
Расширение режима : CM (complete main)
Идентификатор кодека : A_AC3
Продолжительность : 1 ч. 28 м.
Вид битрейта : Постоянный
Битрейт : 192 Кбит/сек
Каналы : 2 канала
Расположение каналов : Front: L R
Частота : 48,0 КГц
Битовая глубина : 16 бит
Метод сжатия : С потерями
Размер потока : 122 Мбайт (8%)
Заголовок : многоголосный (НТВ+)
Язык : Russian

Текст #1
Идентификатор : 3
Формат : UTF-8
Идентификатор кодека : S_TEXT/UTF8
Идентификатор кодека/Информация : UTF-8 Plain Text
Язык : Russian

Текст #2
Идентификатор : 4
Формат : UTF-8
Идентификатор кодека : S_TEXT/UTF8
Идентификатор кодека/Информация : UTF-8 Plain Text
Язык : English





Релиз от:

Авторы релиза:




реклама партнёра


Вернуться к началу
 Профиль  
 
   Похожие торренты   Автор   Торрент   Размер 
В этой теме нет новых непрочитанных сообщений. Защитник / Safe [боевик, триллер, криминал, 2012] BDRip, Avo

salma3

4 | 1

1.46 ГБ

В этой теме нет новых непрочитанных сообщений. Защитник / Safe [боевик, триллер, криминал, 2012] BDRip-AVC, Dub

salma3

32 | 1

2.18 ГБ

В этой теме нет новых непрочитанных сообщений. Автострада / Motorway / Che sau [Боевик, драма, криминал, 2012] BDRip 720р, Avo+Sub

salma3

202 | 35

5.67 ГБ

В этой теме нет новых непрочитанных сообщений. Шкала агрессии / The Aggression Scale [боевик, триллер, криминал, 2012] BDRip, Dvo [НТВ+]

salma3

21 | 2

1.37 ГБ

В этой теме нет новых непрочитанных сообщений. Контрабанда / Contraband [боевик, триллер, драма, криминал, 2012] BDRip 720p, Dub+Avo+Sub

salma3

108 | 33

7.63 ГБ

В этой теме нет новых непрочитанных сообщений. Заложница: Дилогия / Taken: Dilogy [боевик, триллер, криминал , 2008-2012] BDRip, Dub

salma3

123 | 15

2.91 ГБ

В этой теме нет новых непрочитанных сообщений. Наблюдатель / Observance [ужасы, триллер, детектив, 2015] HDRip, Avo

salma3

60 | 3

739.48 МБ


СообщениеДобавлено: 24 ноя 2016, 00:57 

Не в сети
Дата регистрации:
06 апр 2016, 00:05
Спасибо: 0 / 1
Сообщения: 1
кк


Вернуться к началу
 Профиль Отправить личное сообщение  
 
Начать новую тему Ответить на тему  [ Сообщений: 2 ] 




Для Мосгорсуда, Роскомнадзора и рекламодателей:: mosgorsud-torrent[собачка]yandex.ru