Торрент файл
скачать торрент магнет ссылка Добавлен: 23 июл 2013, 10:21
Размер: 2.17 ГБ
Сидеров: 285
Личеров: 21
Автор

СообщениеДобавлено: 23 июл 2013, 10:21 

Не в сети
Зам. Админа
Аватара пользователя
Дата регистрации:
02 дек 2010, 12:39
Спасибо: 12458 / 214
Сообщения: 27968

Год выпуска: 2012
Производство: США / Atlantic Pictures (II), Laundry Films, Northern Lights Films, Northern Lights Films and Media Ventures...
Жанр: Фэнтези, триллер, комедия
Продолжительность: 01:41:29
Перевод: Профессиональный (многоголосый закадровый)
Субтитры: Английские, русские |отключаемые|
Навигация по главам: Есть


Режиссер: Рамаа Мосли / Ramaa Mosley

В ролях: Джуно Темпл, Майкл Ангарано, Алексис Бледел, Билли Магнуссен, Алиа Шокат, Бобби Мойнихэн мл., Стив Парк,Бен Раппапорт, Люси Уолтерс, Джек МакБрайер...

О фильме: Признайтесь, каждому бы хотелось иметь волшебный чайник под кроватью, который выдает по первому требованию наличные?! Но кто знает, через что должен пройти миллионер? Богатые тоже плачут, ведь чайник производит деньги, как только кто-то из окружающих чувствует боль. Как далеко готовы зайти ради денег молодожены Джон и Эллис в погоне за богатством?






Качество: BDRip-AVC [The.Brass.Teapot.2012.1080p.Remux.AVC.FLAC.5.1-SpaceHD]
Формат: MKV
Видео: H.264, 1040x442 (2.35:1), 23,976 fps, 2186 Кbps, 0.182 bit/pixel
Аудио#1: 48 kHz, AC3 Dolby Digital, 3/2 (L,C,R,l,r) + LFE ch, 448.00 kbps | RUS
Аудио#2: 48 kHz, AC3 Dolby Digital, 3/2 (L,C,R,l,r) + LFE ch, 448.00 kbps | ENG


Релиз от:



Общее
Уникальный идентификатор : 214800582213129642024914988110983008235 (0xA199165BA05B8EEAA481EB7F78790FEB)
Полное имя : Million.dlja.Chajnikov.2012.BDRip.x264.potroks.mkv
Формат : Matroska
Версия формата : Version 4 / Version 2
Размер файла : 2,17 Гбайт
Продолжительность : 1 ч. 45 м.
Общий поток : 2959 Кбит/сек
Название фильма : -=POTROKS=-
Дата кодирования : UTC 2013-07-20 02:47:00
Программа кодирования : mkvmerge v5.9.0 ('On The Loose') built on Dec 15 2012 16:39:58
Библиотека кодирования : libebml v1.3.0 + libmatroska v1.4.0

Видео
Идентификатор : 1
Формат : AVC
Формат/Информация : Advanced Video Codec
Профиль формата : High@L4.1
Параметр CABAC формата : Да
Параметр ReFrames формата : 10 кадров
Идентификатор кодека : V_MPEG4/ISO/AVC
Продолжительность : 1 ч. 45 м.
Битрейт : 2004 Кбит/сек
Номинальный битрейт : 2186 Кбит/сек
Ширина : 1040 пикселей
Высота : 442 пикселя
Соотношение сторон : 2,35:1
Режим частоты кадров : Постоянный
Частота кадров : 23,976 кадра/сек
Цветовое пространство : YUV
Субдискретизация насыщенности : 4:2:0
Битовая глубина : 8 бит
Тип развёртки : Прогрессивная
Бит/(Пиксели*Кадры) : 0.182
Размер потока : 1,47 Гбайт (68%)
Заголовок : The Brass Teapot
Библиотека кодирования : x264 core 125 r2208 d9d2288
Настройки программы : cabac=1 / ref=10 / deblock=1:-2:-1 / analyse=0x3:0x133 / me=umh / subme=11 / psy=1 / psy_rd=1.09:0.05 / mixed_ref=1 / me_range=32 / chroma_me=1 / trellis=2 / 8x8dct=1 / cqm=0 / deadzone=21,11 / fast_pskip=0 / chroma_qp_offset=-3 / threads=9 / lookahead_threads=1 / sliced_threads=0 / nr=0 / decimate=1 / interlaced=0 / bluray_compat=0 / constrained_intra=0 / bframes=11 / b_pyramid=2 / b_adapt=2 / b_bias=0 / direct=3 / weightb=1 / open_gop=0 / weightp=2 / keyint=240 / keyint_min=23 / scenecut=40 / intra_refresh=0 / rc_lookahead=150 / rc=2pass / mbtree=1 / bitrate=2186 / ratetol=1.0 / qcomp=0.70 / qpmin=0 / qpmax=69 / qpstep=4 / cplxblur=20.0 / qblur=0.5 / vbv_maxrate=20000 / vbv_bufsize=20000 / nal_hrd=none / ip_ratio=1.35 / aq=2:0.70
Язык : English
Default : Да
Forced : Нет

Аудио #1
Идентификатор : 2
Формат : AC-3
Формат/Информация : Audio Coding 3
Расширение режима : CM (complete main)
Параметр Endianness формата : Big
Идентификатор кодека : A_AC3
Продолжительность : 1 ч. 45 м.
Вид битрейта : Постоянный
Битрейт : 448 Кбит/сек
Каналы : 6 каналов
Расположение каналов : Front: L C R, Side: L R, LFE
Частота : 48,0 КГц
Битовая глубина : 16 бит
Метод сжатия : С потерями
Размер потока : 337 Мбайт (15%)
Заголовок : MVO | DD 5.1 @ 448 kbps
Язык : Russian
Default : Да
Forced : Да

Аудио #2
Идентификатор : 3
Формат : AC-3
Формат/Информация : Audio Coding 3
Расширение режима : CM (complete main)
Параметр Endianness формата : Big
Идентификатор кодека : A_AC3
Продолжительность : 1 ч. 45 м.
Вид битрейта : Постоянный
Битрейт : 448 Кбит/сек
Каналы : 6 каналов
Расположение каналов : Front: L C R, Side: L R, LFE
Частота : 48,0 КГц
Битовая глубина : 16 бит
Метод сжатия : С потерями
Размер потока : 337 Мбайт (15%)
Заголовок : Original | DD 5.1 @ 448 kbps
Язык : English
Default : Нет
Forced : Нет

Текст #1
Идентификатор : 4
Формат : UTF-8
Идентификатор кодека : S_TEXT/UTF8
Идентификатор кодека/Информация : UTF-8 Plain Text
Язык : English
Default : Нет
Forced : Нет

Текст #2
Идентификатор : 5
Формат : UTF-8
Идентификатор кодека : S_TEXT/UTF8
Идентификатор кодека/Информация : UTF-8 Plain Text
Язык : Russian
Default : Нет
Forced : Нет

Меню
00:00:00.000 : :Chapter 01
00:09:00.706 : :Chapter 02
00:17:34.803 : :Chapter 03
00:26:13.697 : :Chapter 04
00:35:37.343 : :Chapter 05
00:43:47.374 : :Chapter 06
00:51:37.010 : :Chapter 07
01:01:01.991 : :Chapter 08
01:11:11.809 : :Chapter 09
01:17:19.509 : :Chapter 10
01:26:29.142 : :Chapter 11
01:36:37.374 : :Chapter 12
x264 [info]: frame I:1570 Avg QP:17.35 size: 70706
x264 [info]: frame P:30331 Avg QP:18.04 size: 24242
x264 [info]: frame B:114087 Avg QP:21.12 size: 7045
x264 [info]: consecutive B-frames: 1.8% 1.2% 7.0% 22.1% 18.5% 41.5% 4.3% 1.0% 0.8% 0.6% 0.5% 0.7%
x264 [info]: mb I I16..4: 9.7% 69.4% 20.8%
x264 [info]: mb P I16..4: 0.6% 7.7% 1.4% P16..4: 29.9% 34.3% 14.1% 2.9% 0.4% skip: 8.7%
x264 [info]: mb B I16..4: 0.0% 0.9% 0.1% B16..8: 34.6% 18.0% 3.0% direct: 4.3% skip:39.0% L0:41.5% L1:44.1% BI:14.4%
x264 [info]: 8x8 transform intra:77.8% inter:62.6%
x264 [info]: direct mvs spatial:97.7% temporal:2.3%
x264 [info]: coded y,uvDC,uvAC intra: 91.2% 89.0% 72.0% inter: 22.3% 20.8% 7.5%
x264 [info]: i16 v,h,dc,p: 19% 14% 5% 63%
x264 [info]: i8 v,h,dc,ddl,ddr,vr,hd,vl,hu: 11% 7% 4% 10% 14% 15% 13% 14% 12%
x264 [info]: i4 v,h,dc,ddl,ddr,vr,hd,vl,hu: 13% 8% 4% 9% 15% 16% 13% 12% 11%
x264 [info]: i8c dc,h,v,p: 44% 18% 19% 19%
x264 [info]: Weighted P-Frames: Y:2.6% UV:0.5%
x264 [info]: ref P L0: 48.0% 12.2% 18.2% 5.9% 4.9% 3.2% 3.2% 1.5% 1.5% 1.3% 0.1% 0.0%
x264 [info]: ref B L0: 76.7% 10.9% 5.1% 2.6% 1.6% 1.3% 1.2% 0.4% 0.2%
x264 [info]: ref B L1: 92.8% 7.2%
x264 [info]: kb/s:2167.84

x264 [total]: encoded 145988 frames, 7.07 fps, 2167.84 kb/s
TIME
------------------------------
Общее время кодирования: 7 hour 47 min 54 sec
Файл получился на: 1574.59 mb





реклама партнёра


Вернуться к началу
 Профиль  
 
   Похожие торренты   Автор   Торрент   Размер 
В этой теме нет новых непрочитанных сообщений. Миллион способов потерять голову / A Million Ways to Die in the West [комедия, вестерн, 2014] BDRip, Dub+Sub [Лицензия]

Dracon

2069 | 72

2.18 ГБ

В этой теме нет новых непрочитанных сообщений. Миллион способов потерять голову / A Million Ways to Die in the West [комедия, вестерн, 2014] BDRip 1080p, Dub+Sub [Лицензия]

Dracon

592 | 19

9.07 ГБ

В этой теме нет новых непрочитанных сообщений. Миллион способов потерять голову / A Million Ways to Die in the West [комедия, вестерн, 2014] BDRip 720p, Dub+Sub [Лицензия]

Dracon

1115 | 47

2.9 ГБ

В этой теме нет новых непрочитанных сообщений. Третий лишний / Ted [Фэнтези, комедия, 2012] BDRip-AVC, Dub+Sub [Лицензия]

Dracon

0 | 2

4.1 ГБ

В этой теме нет новых непрочитанных сообщений. Рука на миллион / Million Dollar Arm [драма, биография, спорт, 2014] BDRip 720p, Dub+Sub [Лицензия]

Dracon

224 | 21

3.87 ГБ

В этой теме нет новых непрочитанных сообщений. Миллион способов потерять голову / A Million Ways to Die in the West [комедия, вестерн, 2014] Blu-Ray, Dub+Sub [Лицензия]

Dracon

0 | 2

42.08 ГБ

В этой теме нет новых непрочитанных сообщений. Миллион способов потерять голову / A Million Ways to Die in the West [комедия, вестерн, 2014] DVD5, Dub+Sub [Лицензия]

Dracon

31 | 5

4.37 ГБ


Начать новую тему Ответить на тему  [ 1 сообщение ] 




Для Мосгорсуда, Роскомнадзора и рекламодателей:: mosgorsud-torrent[собачка]yandex.ru