Торрент файл
скачать торрент магнет ссылка Добавлен: 21 июл 2013, 21:49
Размер: 1.37 ГБ
Сидеров: 1
Личеров: 3
Автор

СообщениеДобавлено: 21 июл 2013, 21:49 

Не в сети
Супермодератор
Аватара пользователя
Дата регистрации:
15 фев 2012, 16:44
Возраст: 27
Спасибо: 5130 / 2089
Сообщения: 17372


Информация о фильме
Название: Надин
Оригинальное название: Nadine
Год выхода: 1987
Жанр: комедия, криминал
Режиссер: Роберт Бентон
В ролях: Джефф Бриджес, Ким Бейсингер, Рип Торн, Гвен Вердон, Гленн Хедли, Джерри Стиллер, Джей Пэттерсон, William Youmans, Гэри Граббс, Мики Джонс

О фильме:
Надин и Вернон собираются разводиться. Однако, обнаружив у себя чужие документы и став невольной свидетельницей убийства, Надин обращается за помощью к своему «почти бывшему» мужу, и их любовь разгорается с новой силой…


Страна: США
Продолжительность: 01:22:55
Перевод: Профессиональный (многоголосый, закадровый) |1 канал|

Файл
Кодек: XviD
Качество: WEB-DLRip
Видео: 720x400, 23.976 fps, 2157 kbps
Звук: 48 kHz, AC3, 2 ch, ~192.00 kbps
Общее
Полное имя : Nadine.1987.WEB-DLRip.avi
Формат : AVI
Формат/Информация : Audio Video Interleave
Размер файла : 1,37 Гбайт
Продолжительность : 1 ч. 22 м.
Общий поток : 2358 Кбит/сек
Программа кодирования : VirtualDubMod 1.5.10.2 (build 2542/release)
Библиотека кодирования : VirtualDubMod build 2542/release

Видео
Идентификатор : 0
Формат : MPEG-4 Visual
Профиль формата : Advanced Simple@L5
Параметр BVOP формата : 2
Параметр QPel формата : Нет
Параметр GMC формата : Без точки перехода
Параметр матрицы формата : Выборочная
Идентификатор кодека : XVID
Идентификатор кодека/Подсказка : XviD
Продолжительность : 1 ч. 22 м.
Битрейт : 2157 Кбит/сек
Ширина : 720 пикс.
Высота : 400 пикс.
Соотношение сторон : 16:9
Частота кадров : 23,976 кадр/сек
Цветовое пространство : YUV
Подвыборка цветности : 4:2:0
Битовая глубина : 8 бит
Тип развёртки : Прогрессивная
Метод сжатия : С потерями
Бит/(Пиксели*Кадры) : 0.312
Размер потока : 1,25 Гбайт (92%)
Библиотека кодирования : XviD 73

Аудио
Идентификатор : 1
Формат : AC-3
Формат/Информация : Audio Coding 3
Расширение режима : CM (complete main)
Идентификатор кодека : 2000
Продолжительность : 1 ч. 22 м.
Вид битрейта : Постоянный
Битрейт : 192 Кбит/сек
Канал(ы) : 2 канала(ов)
Расположение каналов : Front: L R
Частота : 48,0 КГц
Битовая глубина : 16 бит
Метод сжатия : С потерями
Размер потока : 113 Мбайт (8%)
Выравнивание : Разделение по промежуткам
Продолжительность промежутка : 42 мс. (1,01 видеокадр)
Время предзагрузки промежутка : 500 ms


Релиз от: Leon-masl




реклама партнёра


Вернуться к началу
 Профиль Отправить личное сообщение  
 
   Похожие торренты   Автор   Торрент   Размер 
В этой теме нет новых непрочитанных сообщений. Воровка / Burglar [комедия, криминал, 1987] WEB-DLRip, Mvo+Avo

salma3

66 | 7

1.46 ГБ

В этой теме нет новых непрочитанных сообщений. Кровавые деньги / Clinton and Nadine [боевик, триллер, драма, мелодрама, криминал, 1988] DVDRip, Avo

salma3

2 | 3

1.45 ГБ

В этой теме нет новых непрочитанных сообщений. Игорный дом / House of Games [триллер, криминал, детектив, 1987] WEB-DLRip, Dub

salma3

0 | 2

1.46 ГБ

В этой теме нет новых непрочитанных сообщений. Преследование по пятам / Hot Pursuit [комедия, приключения, 1987] WEB-DLRip, Avo

salma3

30 | 2

1.45 ГБ

В этой теме нет новых непрочитанных сообщений. Сбрось маму с поезда / Throw Momma from the Train [комедия, криминал, 1987] BDRip, Dvo [НТВ+]

salma3

23 | 8

1.45 ГБ

В этой теме нет новых непрочитанных сообщений. Воспитывая Аризону / Raising Arizonay [комедия, криминал, детектив, приключения, 1987] BDRip 720p, Dvo

salma3

5 | 3

4.66 ГБ

В этой теме нет новых непрочитанных сообщений. Супершпион / Gun Shy [мелодрама, комедия, криминал, 2000] WEB-DLRip, Dvo

salma3

105 | 27

1.46 ГБ


Начать новую тему Ответить на тему  [ 1 сообщение ] 




Для Мосгорсуда, Роскомнадзора и рекламодателей:: mosgorsud-torrent[собачка]yandex.ru