Автор

СообщениеДобавлено: 21 июл 2013, 20:36 

В сети
Супермодератор
Аватара пользователя
Дата регистрации:
15 фев 2012, 16:44
Возраст: 27
Торренты: 6735
Раздал: 8.45 ТБ 
Скачал: 3.08 ТБ 
Ратио: 2.745
Спасибо: 5121 / 2089
Сообщения: 17319

Информация о фильме
Название: Приключения приятеля сантехника
Оригинальное название: Adventures of a Plumber's Mate
Год выхода: 1978
Жанр: комедия, криминал
Режиссер: Стэнли А. Лонг / Stanley A. Long
В ролях: Кристофер Нил, Артур Муллар, Анна Куэйл, Стивен Льюис, Нина Уэст, Уильям Раштон, Пруденс Драдж, Джонатан Адамс, Грэхэм Эшли, Невилл Барбер, Линди Бенсон, Кристофер Биггинс, Джон Ботт, Ричард Кэлдикот.

О фильме:
Молодой человек, выдавая себя за сантехника, ищет сексуальных приключений и проворачивает рискованные дела с похитителями драгоценностей.



Страна: Великобритания
Продолжительность: 01:25:01
Перевод:
1. Авторский (одноголосый закадровый) Гаврилов
2. Авторский (одноголосый закадровый) Дольский

Файл
Кодек: XviD
Качество: DVDRip
Видео: 720x384 (1.88:1), 25 fps, XviD build 47 ~2114 kbps avg, 0.31 bit/pixel
Звук:
1. 48 kHz, AC3 Dolby Digital, 2/0 (L,R) ch, ~192.00 kbps avg
2. 48 kHz, AC3 Dolby Digital, 2/0 (L,R) ch, ~192.00 kbps avg
Субтитры: Нет

Семпл

Код:
Общее
Полное имя                               : Приключения приятеля сантехника - Adventures of a Plumber's Mate.avi
Формат                                   : AVI
Формат/Информация                        : Audio Video Interleave
Размер файла                             : 1,49 Гбайт
Продолжительность                        : 1 ч. 24 м.
Общий поток                              : 2514 Кбит/сек
Программа кодирования                    : VirtualDubMod 1.5.10.2 (build 2540/release)
Библиотека кодирования                   : VirtualDubMod build 2540/release

Видео
Идентификатор                            : 0
Формат                                   : MPEG-4 Visual
Профиль формата                          : Advanced Simple@L5
Параметр BVOP формата                    : 1
Параметр QPel формата                    : Нет
Параметр GMC формата                     : Без точки перехода
Параметр матрицы формата                 : Выборочная
Идентификатор кодека                     : XVID
Идентификатор кодека/Подсказка           : XviD
Продолжительность                        : 1 ч. 24 м.
Битрейт                                  : 2115 Кбит/сек
Ширина                                   : 720 пикселей
Высота                                   : 384 пикселя
Соотношение сторон                       : 1,85:1
Частота кадров                           : 25,000 кадров/сек
Цветовое пространство                    : YUV
Субдискретизация насыщенности            : 4:2:0
Битовая глубина                          : 8 бит
Тип развёртки                            : Прогрессивная
Метод сжатия                             : С потерями
Бит/(Пиксели*Кадры)                      : 0.306
Размер потока                            : 1,26 Гбайт (84%)
Библиотека кодирования                   : XviD 1.2.0.dev47 (UTC 2006-11-01)

Аудио #1
Идентификатор                            : 1
Формат                                   : AC-3
Формат/Информация                        : Audio Coding 3
Расширение режима                        : CM (complete main)
Параметр Endianness формата              : Big
Идентификатор кодека                     : 2000
Продолжительность                        : 1 ч. 24 м.
Вид битрейта                             : Постоянный
Битрейт                                  : 192 Кбит/сек
Каналы                                   : 2 канала
Расположение каналов                     : Front: L R
Частота                                  : 48,0 КГц
Битовая глубина                          : 16 бит
Метод сжатия                             : С потерями
Размер потока                            : 117 Мбайт (8%)
Выравнивание                             : Разделение по промежуткам
Продолжительность промежутка             : 40  мс. (1,00 видеокадр)
Время предзагрузки промежутка            : 500  мс.

Аудио #2
Идентификатор                            : 2
Формат                                   : AC-3
Формат/Информация                        : Audio Coding 3
Расширение режима                        : CM (complete main)
Параметр Endianness формата              : Big
Идентификатор кодека                     : 2000
Продолжительность                        : 1 ч. 24 м.
Вид битрейта                             : Постоянный
Битрейт                                  : 192 Кбит/сек
Каналы                                   : 2 канала
Расположение каналов                     : Front: L R
Частота                                  : 48,0 КГц
Битовая глубина                          : 16 бит
Метод сжатия                             : С потерями
Размер потока                            : 117 Мбайт (8%)
Выравнивание                             : Разделение по промежуткам
Продолжительность промежутка             : 40  мс. (1,00 видеокадр)
Время предзагрузки промежутка            : 500  мс.





реклама партнёра


Вернуться к началу
 Профиль Отправить личное сообщение  
 
   Похожие торренты   Автор   Торрент   Размер 
В этой теме нет новых непрочитанных сообщений. Змея в тени орла / Se ying diu sau / Snake in the Eagle's Shadow [Комедия, приключения, боевик, 1978] BDRip 1080p, Mvo+Dvo+2Avo+Sub

salma3

13 | 8

13.37 ГБ

В этой теме нет новых непрочитанных сообщений. Змея в тени орла / Snake in the Eagle's Shadow / Se ying diu sau [боевик, комедия, 1978] BDRip 720p, Mvo+Dvo+2Avo

salma3

24 | 7

7.72 ГБ

В этой теме нет новых непрочитанных сообщений. Серебряные медведи / Silver Bears [комедия, криминал, 1978] DVDRip, Dvo

salma3

12 | 3

1.39 ГБ

В этой теме нет новых непрочитанных сообщений. Новые приключения старой Кристин / The New Adventures of Old Christine / 3 сезон 1-10 серии из 10 [комедия, 2008] DVDRip, Mvo [ViruseProject]

salma3

9 | 2

1.81 ГБ

В этой теме нет новых непрочитанных сообщений. Новые приключения старой Кристин / The New Adventures of Old Christine / 1 сезон 1-13 серии из 13 [комедия, 2006] DVDRip, Mvo [ViruseProject]

salma3

14 | 4

2.34 ГБ

В этой теме нет новых непрочитанных сообщений. Новые приключения старой Кристин / The New Adventures of Old Christine / 2 сезон 1-22 серии из 22 [комедия, 2006-2007] DVDRip, Mvo [ViruseProject]

salma3

6 | 4

4 ГБ

В этой теме нет новых непрочитанных сообщений. Новые приключения старой Кристин / The New Adventures of Old Christine / 4 сезон 1-22 серии из 22 [комедия, 2008-2009] DVDRip, Mvo [ViruseProject]

salma3

15 | 4

3.97 ГБ


 [ 1 сообщение ] 




Для Мосгорсуда, Роскомнадзора и рекламодателей:: mosgorsud-torrent[собачка]yandex.ru