Торрент файл
скачать торрент магнет ссылка Добавлен: 21 июл 2013, 20:33
Размер: 1.46 ГБ
Сидеров: 4
Личеров: 2
Автор

СообщениеДобавлено: 21 июл 2013, 20:33 

Не в сети
Зам. Админа
Аватара пользователя
Дата регистрации:
02 дек 2010, 12:39
Спасибо: 12558 / 214
Сообщения: 28075
«У вас когда-то было ощущение, что за вами наблюдают?»



Страна: Канада / Copper Heart Entertainment
Жанр: триллер
Год выпуска: 2011
Продолжительность: 01:26:22

Перевод: Профессиональный (многоголосый, закадровый)
Оригинальная аудиодорожка: нет
Субтитры: русский

Режиссер: Рэндолл Коул / Randall Cole

В ролях: Ник Стал, Миа Киршнер, Девон Сава, Аарон Абрамс, Шарлотта Салливан, Криста Бриджес, Грэхэм Эбби, Джерри Ди, Кайл Лабайн, Дэниэл Левек...

Описание: Неизвестный ведет наблюдение за молодой парой 24 часа в сутки при помощи размещенных в их доме скрытых камер. Вскоре герои начинают подозревать неладное и узнают о слежке. С этого момента кошмар ситуации только нарастает…






Исходник: BDRemux 1080p
Качество: BDRip
Формат: AVI
Видео: 720x400 (16:9), 23.976 fps, XViD ~ 1957 kbps avg, 0.283 bit/pixel
Аудио: 48 kHz, АС3 6 ch, 448 kbps, русский
Формат субтитров: SoftSub (srt)

Раздача от:
Общее
Полное имя : Astral.na.ulitse.Arlett.2011.P.BDRp_[Youtracker]_by_avproh.avi
Формат : AVI
Формат/Информация : Audio Video Interleave
Размер файла : 1,46 Гбайт
Продолжительность : 1 ч. 26 м.
Общий поток : 2415 Кбит/сек
Программа кодирования : VirtualDubModRus 1.5.10.2 (build 2542/release)
Библиотека кодирования : VirtualDubMod build 2542/release

Видео
Идентификатор : 0
Формат : MPEG-4 Visual
Профиль формата : Advanced Simple@L5
Параметр BVOP формата : 1
Параметр QPel формата : Нет
Параметр GMC формата : Без точки перехода
Параметр матрицы формата : Выборочная
Идентификатор кодека : XVID
Идентификатор кодека/Подсказка : XviD
Продолжительность : 1 ч. 26 м.
Битрейт : 1957 Кбит/сек
Ширина : 720 пикселей
Высота : 400 пикселей
Соотношение сторон : 16:9
Частота кадров : 23,976 кадра/сек
Цветовое пространство : YUV
Субдискретизация насыщенности : 4:2:0
Битовая глубина : 8 бит
Тип развёртки : Прогрессивная
Метод сжатия : С потерями
Бит/(Пиксели*Кадры) : 0.283
Размер потока : 1,18 Гбайт (81%)
Библиотека кодирования : XviD 65

Аудио
Идентификатор : 1
Формат : AC-3
Формат/Информация : Audio Coding 3
Расширение режима : CM (complete main)
Параметр Endianness формата : Big
Идентификатор кодека : 2000
Продолжительность : 1 ч. 26 м.
Вид битрейта : Постоянный
Битрейт : 448 Кбит/сек
Каналы : 6 каналов
Расположение каналов : Front: L C R, Side: L R, LFE
Частота : 48,0 КГц
Битовая глубина : 16 бит
Метод сжатия : С потерями
Размер потока : 277 Мбайт (19%)
Выравнивание : Разделение по промежуткам
Продолжительность промежутка : 42 мс. (1,00 видеокадр)
Время предзагрузки промежутка : 500 мс.






реклама партнёра


Вернуться к началу
 Профиль  
 
   Похожие торренты   Автор   Торрент   Размер 
В этой теме нет новых непрочитанных сообщений. Ghost Avenue - Ghost Avenue [2013, Heavy Metal, Hard Rock, MP3]

PriZraK

0 | 1

110 МБ

В этой теме нет новых непрочитанных сообщений. Маленький убийца / Little Murder [триллер, драма, 2011] BDRip 720p, Mvo [Лицензия]

salma3

8 | 2

4.52 ГБ

В этой теме нет новых непрочитанных сообщений. Маленький убийца / Little Murder [триллер, драма. 2011] BDRip 1080p, Mvo [Лицензия]

salma3

6 | 2

8.89 ГБ

В этой теме нет новых непрочитанных сообщений. Охотники за головами / Hodejegerne [Триллер, криминал, боевик, 2011] BDRip 720p, Dub [лицензия]

salma3

71 | 5

2.19 ГБ

В этой теме нет новых непрочитанных сообщений. The Rolling Stones - 2120 South Michigan Avenue (The Unrealesed 1964 Blues Album) [2011, Rock, Blues, MP3]

PriZraK

0 | 1

174.91 МБ

В этой теме нет новых непрочитанных сообщений. Одинокое место для смерти / Похищенная / A Lonely Place to Die [триллер, драма, боевик, криминал, 2011] BDRip, Mvo [Лицензия]

salma3

123 | 6

1.45 ГБ

В этой теме нет новых непрочитанных сообщений. Голодные игры: Дилогия / The Hunger Games: Dilogy [драма, боевик, триллер, фантастика, 2011-2013] BDRip, Dub [Лицензия]

salma3

57 | 11

5.83 ГБ


Начать новую тему Ответить на тему  [ 1 сообщение ] 




Для Мосгорсуда, Роскомнадзора и рекламодателей:: mosgorsud-torrent[собачка]yandex.ru